<?xml version="1.0" standalone="no"?>
<!DOCTYPE svg PUBLIC "-//W3C//DTD SVG 1.1//EN" "http://www.w3.org/Graphics/SVG/1.1/DTD/svg11.dtd" >
<svg xmlns="http://www.w3.org/2000/svg">
<metadata>Generated by IcoMoon</metadata>
<defs>
<font id="theme-icons" horiz-adv-x="1024">
<font-face units-per-em="1024" ascent="960" descent="-64" />
<missing-glyph horiz-adv-x="1024" />
<glyph unicode="&#x20;" horiz-adv-x="512" d="" />
<glyph unicode="&#xe900;" glyph-name="arrow-1-right" d="M543.050 878.804c-19.819-19.819-19.819-50.869 0-70.029l311.825-311.825h-805.326c-27.365 0-49.548-22.184-49.548-49.548s22.184-49.548 49.548-49.548v0h805.326l-311.825-311.825c-8.239-8.824-13.298-20.711-13.298-33.778 0-27.365 22.184-49.548 49.548-49.548 13.068 0 24.954 5.059 33.807 13.325l-0.029-0.026 396.387 396.387c8.97 8.959 14.522 21.337 14.535 35.012v0.003c-0.012 13.677-5.565 26.056-14.533 35.014v0l-396.387 396.387c-8.964 8.953-21.343 14.491-35.014 14.491s-26.050-5.537-35.015-14.491v0z" />
<glyph unicode="&#xe901;" glyph-name="arrow-down" d="M16.633 715.67c22.748 22.748 58.386 22.748 80.378 0l414.776-414.776 414.776 414.776c10.292 10.294 24.511 16.661 40.216 16.661 12.855 0 24.714-4.265 34.238-11.456l-0.144 0.105 6.066-5.309c22.748-22.748 22.748-58.386 0-80.378l-454.964-454.964c-22.748-22.748-58.386-22.748-80.378 0l-454.964 454.964c-10.276 10.288-16.633 24.497-16.633 40.188s6.355 29.9 16.633 40.19v0z" />
<glyph unicode="&#xe902;" glyph-name="arrow-left" d="M699.545 943.816c10.142 9.469 23.804 15.283 38.822 15.283 31.451 0 56.947-25.496 56.947-56.947 0-15.020-5.814-28.68-15.315-38.855l0.030 0.034-415.332-415.332 415.332-415.332c20.501-20.501 22.779-51.631 5.316-74.41l-5.316-6.074c-22.779-22.779-58.465-22.779-80.485 0l-455.574 455.574c-10.29 10.302-16.655 24.53-16.655 40.242s6.364 29.94 16.655 40.244v0l455.574 455.574z" />
<glyph unicode="&#xe903;" glyph-name="arrow-right" d="M243.971 943.816c22.779 22.779 58.465 22.779 80.485 0l455.574-455.574c22.779-22.779 22.779-58.465 0-80.485l-455.574-455.574c-10.142-9.469-23.804-15.283-38.822-15.283-31.451 0-56.947 25.496-56.947 56.947 0 15.020 5.814 28.68 15.315 38.855l-0.030-0.034 415.332 415.332-415.332 415.332c-10.307 10.306-16.684 24.544-16.684 40.27 0 12.872 4.271 24.747 11.471 34.284l-0.105-0.144 5.316 6.074z" />
<glyph unicode="&#xe904;" glyph-name="bag" d="M512.263 959.999c108.758 0 196.923-88.165 196.923-196.923v0-65.641h100.825c0.036 0 0.078 0 0.119 0 79.755 0 144.41-64.655 144.41-144.41 0-7.785-0.617-15.426-1.802-22.878l0.108 0.822-66.166-427.979c-15.018-95.009-96.246-166.817-194.279-166.991h-360.256c-98.052 0.174-179.28 71.982-194.151 165.873l-0.146 1.118-66.692 427.979c-1.078 6.629-1.695 14.271-1.695 22.055 0 79.755 64.655 144.41 144.41 144.41 0.042 0 0.084 0 0.126 0h100.818v65.641c0 0 0 0 0 0.001 0 108.758 88.165 196.923 196.923 196.923 0.185 0 0.369 0 0.554-0.001h-0.028zM810.011 618.666h-100.825v-118.154c0-21.751-17.633-39.385-39.385-39.385s-39.385 17.633-39.385 39.385v0 118.154h-236.308v-118.154c0-21.751-17.633-39.385-39.385-39.385s-39.385 17.633-39.385 39.385v0 118.154h-100.825c-36.129-0.164-65.354-29.489-65.354-65.641 0-3.522 0.277-6.978 0.811-10.351l-0.049 0.373 65.641-427.979c8.964-57.050 57.717-100.187 116.566-100.299h360.25c57.764 0 107.652 42.535 116.578 99.775l66.166 428.505c0.485 2.999 0.763 6.457 0.763 9.978 0 36.252-29.388 65.641-65.641 65.641-0.084 0-0.167 0-0.251 0h0.014zM512.263 881.229c-65.116 0-118.154-52.513-118.154-118.154v-65.641h236.308v65.641c0 65.116-52.513 118.154-118.154 118.154z" />
<glyph unicode="&#xe905;" glyph-name="close" d="M200.836 819.503l311.164-311.143 311.164 311.143c16.662 16.662 43.676 16.662 60.341 0s16.662-43.676 0-60.341l-311.143-311.164 311.143-311.164c16.662-16.662 16.662-43.676 0-60.341s-43.676-16.662-60.341 0l-311.164 311.143-311.164-311.143c-16.662-16.662-43.676-16.662-60.341 0s-16.662 43.676 0 60.341l311.143 311.164-311.143 311.164c-16.662 16.662-16.662 43.676 0 60.341s43.676 16.662 60.341 0z" />
<glyph unicode="&#xe906;" glyph-name="fav-full" d="M506.339 848.171l7.306-5.357 6.332 4.871c51.808 38.481 117.023 61.601 187.638 61.601 9.728 0 19.354-0.438 28.858-1.298l-1.225 0.089 13.637-1.461 12.663-1.949c150.026-26.741 262.452-156.198 262.452-311.914 0-83.598-32.404-159.627-85.335-216.214l0.166 0.178-10.228-10.715-1.461-0.974-362.844-359.435c-13.173-12.95-31.254-20.944-51.202-20.944-17.368 0-33.321 6.061-45.859 16.183l0.139-0.108-5.844 4.871-364.792 361.383c-59.682 57.655-96.74 138.399-96.74 227.798 0 174.84 141.735 316.575 316.575 316.575 71.546 0 137.548-23.734 190.564-63.758l-0.8 0.579z" />
<glyph unicode="&#xe907;" glyph-name="fav" d="M251.258 902.964c94.423 15.737 190.42-13.639 258.615-78.686l2.622-2.622 3.147 2.622c53.816 50.598 126.483 81.686 206.411 81.686 13.597 0 26.983-0.9 40.103-2.642l-1.538 0.167 12.59-1.574c143.297-25.171 250.791-148.69 250.791-297.315 0-84.247-34.538-160.426-90.228-215.151l-0.043-0.043-2.622-2.099-390.808-387.136c-7.097-6.988-16.844-11.304-27.598-11.304-8.761 0-16.854 2.863-23.392 7.706l0.107-0.075-4.721 3.672-393.431 389.234c-56.324 54.855-91.264 131.429-91.264 216.163 0 148.792 107.736 272.421 249.455 297.133l1.805 0.261zM481.021 738.772c-41.106 54.393-105.668 89.177-178.356 89.177-123.129 0-222.944-99.816-222.944-222.944 0-62.477 25.7-118.952 67.103-159.43l0.042-0.041 365.629-361.956 365.629 361.956 2.099 1.574 6.295 6.82c36.187 39.499 58.362 92.354 58.362 150.388 0 19.628-2.536 38.664-7.299 56.798l0.347-1.553-3.147 11.541c-29.339 91.201-113.431 156.037-212.668 156.037-72.561 0-137.026-34.665-177.737-88.337l-0.403-0.554c-15.737-20.983-47.212-20.983-62.949 0z" />
<glyph unicode="&#xe908;" glyph-name="menu" horiz-adv-x="1280" d="M1249.787 661.421c16.838 0 30.489-15.087 30.489-33.699s-13.65-33.699-30.489-33.699h-1219.548c-16.838 0-30.489 15.087-30.489 33.699s13.65 33.699 30.489 33.699h1219.548zM1249.787 301.975c16.838 0 30.489-15.087 30.489-33.699s-13.65-33.699-30.489-33.699h-1219.548c-16.838 0-30.489 15.087-30.489 33.699s13.65 33.699 30.489 33.699h1219.548z" />
<glyph unicode="&#xe909;" glyph-name="search" d="M610.463 905.477c125.919-72.699 203.487-207.052 203.487-352.45 0-95.804-33.678-186.813-92.674-258.55l291.19-291.242c15.381-15.381 15.381-40.318 0-55.698s-40.318-15.381-55.698 0l-291.211 291.212c-17.124-14.086-35.525-26.874-55.094-38.172-125.919-72.699-281.056-72.699-406.974 0s-203.487 207.052-203.487 352.45l0.276 14.999c5.131 139.59 81.636 267.258 203.211 337.45 125.919 72.699 281.056 72.699 406.974 0zM242.873 837.26c-101.547-58.628-164.102-166.977-164.102-284.234s62.555-225.606 164.102-284.234c101.547-58.628 226.658-58.628 328.205 0s164.102 166.977 164.102 284.234c0 117.257-62.555 225.606-164.102 284.234s-226.658 58.628-328.205 0z" />
<glyph unicode="&#xe90a;" glyph-name="user" d="M512.002 960c137.76 0 249.436-111.676 249.436-249.436s-111.676-249.436-249.436-249.436c-137.76 0-249.436 111.676-249.436 249.436v0 11.553c6.343 132.698 115.472 237.883 249.168 237.883 0.094 0 0.188 0 0.282 0h-0.015zM512.002 881.231c-94.256 0-170.667-76.41-170.667-170.667s76.41-170.667 170.667-170.667v0c94.256 0 170.667 76.41 170.667 170.667s-76.41 170.667-170.667 170.667v0zM617.027 329.846c137.76 0 249.436-111.676 249.436-249.436v0-105.025c0-21.751-17.633-39.385-39.385-39.385s-39.385 17.633-39.385 39.385v0 105.025c0 94.523-76.668 170.667-170.667 170.667h-210.052c-94.256 0-170.667-76.41-170.667-170.667v0-105.025c0-21.751-17.633-39.385-39.385-39.385s-39.385 17.633-39.385 39.385v0 105.025c0 137.76 111.676 249.436 249.436 249.436v0h210.052z" />
<glyph unicode="&#xe90b;" glyph-name="world" d="M544.548 958.954l3.675-0.525c266.667-19.492 475.632-240.629 475.632-510.572 0-282.689-229.166-511.855-511.855-511.855-282.608 0-511.723 229.033-511.855 511.609v14.187c7.616 276.755 233.784 498.204 511.673 498.204 11.516 0 22.942-0.38 34.27-1.13l-1.538 0.081zM611.221 250.756h-198.442c19.425-81.897 50.923-161.693 95.022-236.241h8.4c40.814 68.025 73.486 146.804 93.823 230.411l1.198 5.83zM897.86 250.756h-205.792c-16.799-77.172-43.573-152.244-79.797-224.691 125.694 30.332 227.916 112.609 284.458 222.278l1.131 2.414zM331.931 250.756h-205.792c57.896-111.902 160.020-194.087 282.622-224.078l2.968-0.614c-33.661 64.677-61.156 139.713-78.646 218.514l-1.152 6.177zM318.808 565.744h-223.641c-10.409-35.394-16.398-76.059-16.398-118.12s5.988-82.725 17.159-121.184l-0.762 3.064h223.641c-10.499 78.747-10.499 157.494 0 236.241zM625.921 565.744h-227.841c-11.025-78.747-11.025-157.494 0-236.241h227.841c11.025 78.747 11.025 157.494 0 236.241zM928.834 565.744h-223.641c10.499-78.747 10.499-157.494 0-236.241h223.641c10.435 35.393 16.44 76.056 16.44 118.12s-6.004 82.727-17.203 121.178l0.763-3.058zM411.729 869.182l-2.624-0.525c-124.579-31.176-225.807-112.992-282.35-221.758l-1.139-2.409h206.317c16.799 77.172 43.573 152.244 79.797 224.691zM512 880.732h-4.199c-40.814-68.025-73.486-146.804-93.823-230.411l-1.198-5.83h198.442c-21.535 89.436-54.206 168.215-97.175 240.132l2.153-3.891h-4.199zM611.747 869.182l8.924-17.324c32.024-66.673 56.172-136.494 71.398-207.367h205.792c-58.007 111.812-160.083 193.951-282.611 224.072l-2.978 0.619z" />
<glyph unicode="&#xe90c;" glyph-name="arrow-1-left" d="M480.972 879.423c19.35-19.35 19.35-50.722 0-70.072l-311.847-311.803h805.327c27.365 0 49.548-22.184 49.548-49.548s-22.184-49.548-49.548-49.548h-805.261l311.78-311.803c19.35-19.35 19.35-50.722 0-70.072s-50.722-19.35-70.072 0l-396.387 396.387c-2.275 2.275-4.283 4.716-6.023 7.285-0.729 1.082-1.432 2.216-2.090 3.379-0.539 0.945-1.044 1.911-1.514 2.889-0.561 1.166-1.089 2.383-1.569 3.625-0.276 0.717-0.52 1.401-0.751 2.090-0.478 1.412-0.901 2.895-1.256 4.407-0.184 0.808-0.345 1.581-0.488 2.357-0.232 1.231-0.42 2.536-0.556 3.855-0.138 1.352-0.22 2.674-0.251 3.996-0.009 0.386-0.014 0.77-0.014 1.152l0.012 1.087c0.029 1.344 0.113 2.688 0.251 4.027l-0.263-5.114c0 3.095 0.283 6.124 0.827 9.061 0.136 0.718 0.297 1.491 0.477 2.261 0.359 1.55 0.782 3.033 1.271 4.487 0.22 0.647 0.466 1.333 0.728 2.013 0.492 1.277 1.020 2.494 1.595 3.685 0.457 0.955 0.962 1.922 1.5 2.875 0.658 1.154 1.361 2.287 2.107 3.388 0.457 0.683 0.952 1.373 1.466 2.055 1.401 1.849 2.914 3.586 4.538 5.212l396.387 396.387c19.35 19.35 50.722 19.35 70.072 0z" />
<glyph unicode="&#xe90d;" glyph-name="Play" d="M87.828 916.051c0 34.328 37.641 55.361 66.877 37.371l760.585-468.051c27.843-17.134 27.843-57.607 0-74.741l-760.585-468.051c-29.236-17.991-66.877 3.043-66.877 37.371v936.104zM175.587 837.594v-779.131l632.982 389.594-632.982 389.537z" />
<glyph unicode="&#xe90e;" glyph-name="shipping" d="M71.943 718.44h0.526l426.929 239.458 2.101 0.526h1.050l2.101 0.526 1.575 0.526h3.151l2.101 0.526h5.776l2.101-1.050h3.151l2.101-1.050 2.101-0.526 3.151-2.101h1.575l420.102-236.307 3.676-2.625-3.676 2.101c4.79-2.719 8.807-6.234 12.009-10.409l0.069-0.094 2.625-3.676v-0.526l1.050-1.050 1.050-3.676-2.101 4.726c2.523-4.069 4.362-8.842 5.22-13.947l0.032-0.231v-1.050c0.036-0.628 0.057-1.361 0.057-2.101s-0.021-1.473-0.060-2.202l0.005 0.101v-472.615c0-14.178-7.877-27.307-19.954-34.133l-420.102-236.307c-1.47-0.895-3.195-1.775-4.988-2.528l-0.263-0.098 5.252 2.625c-5.577-3.265-12.272-5.21-19.418-5.252h-0.012c-4.926 0.064-9.609 1.022-13.92 2.719l0.267-0.092h-0.526c-1.879 0.694-3.438 1.402-4.938 2.204l0.212-0.103-420.102 236.307c-12.295 6.825-20.48 19.732-20.48 34.551 0 0.038 0 0.075 0 0.113v-0.006 472.615c-0.001 0.090-0.001 0.197-0.001 0.304 0 7.233 1.95 14.011 5.353 19.838l-0.101-0.187v-0.526c3.422 6.112 8.224 11.083 14.005 14.606l0.174 0.098zM131.283 617.091v-382.292l341.333-192.197v382.292l-341.333 192.197zM892.717 617.091l-341.333-192.197v-382.292l341.333 192.197v382.292zM715.224 761.501l-327.68-198.498 124.455-69.842 339.757 191.147-136.533 77.194zM512 875.454l-339.757-191.147 136.533-76.668 327.68 197.973-124.455 69.842z" />
<glyph unicode="&#xe90f;" glyph-name="Size" d="M925.801 697.436c54.089 0 98.199-44.636 98.199-99.775v-299.323c0-55.138-44.111-99.775-98.724-99.775h-833.378c-50.938 0-91.898 40.96-91.898 91.898v307.726c0 54.613 44.111 99.249 98.724 99.249h827.077zM157.013 618.667h-58.815c-10.502 0-19.43-8.927-19.43-21.006v-307.2c0-7.351 5.776-13.129 13.129-13.129h833.904c10.502 0 19.43 8.927 19.43 21.006v299.323c0 12.078-8.927 21.006-19.954 21.006h-58.815v-118.154c0-21.751-17.633-39.385-39.385-39.385s-39.385 17.633-39.385 39.385v0 118.154h-78.769v-65.641c0-21.751-17.633-39.385-39.385-39.385s-39.385 17.633-39.385 39.385v0 65.641h-78.769v-118.154c0-21.751-17.633-39.385-39.385-39.385s-39.385 17.633-39.385 39.385v0 118.154h-78.769v-65.641c0-21.751-17.633-39.385-39.385-39.385s-39.385 17.633-39.385 39.385v0 65.641h-78.769v-118.154c0-21.751-17.633-39.385-39.385-39.385s-39.385 17.633-39.385 39.385v0 118.154z" />
<glyph unicode="&#xe910;" glyph-name="tailor" d="M351.036 962.532l1.383-0.308 125.331-35.326c27.954-8.755 27.032-43.006 22.732-60.055-7.526-44.388 0.154-57.29 3.84-60.822 2.765-2.611 5.683-1.997 5.99-1.997 14.131 3.532 22.424 37.476 24.267 53.45 1.075 14.131 8.601 86.011 41.316 88.93 0 0 17.203 2.765 29.183-10.752 7.68-8.601 11.058-21.503 10.444-38.398 8.448 1.997 17.049 1.997 25.496-0.308 29.183-7.834 46.692-37.937 38.858-67.273l-3.994-14.898c14.131-4.3 35.633-7.68 39.627 0 1.075 5.99 5.529 16.127 17.203 23.192 24.881 15.052 69.116 9.983 131.321-15.36 3.338-0.883 5.759-3.877 5.759-7.436 0-4.241-3.438-7.68-7.68-7.68-1.383 0-2.679 0.365-3.8 1.005l0.038-0.020c-75.567 30.411-106.132 23.346-117.651 16.434-9.062-5.529-10.137-12.901-10.137-12.901-0.085-0.685-0.247-1.308-0.479-1.895l0.018 0.052c-4.3-11.826-15.974-15.36-28.107-15.36-11.366 0-23.038 3.072-30.104 5.069l-5.375-19.506-1.843-6.758-15.36-56.982c-0.614-1.536-31.333-99.374-73.264-202.587l-4.608-10.752-2.151-5.529-4.608-10.752c-5.375-12.901-10.752-25.496-16.434-37.937 33.022-2.611 65.276-8.294 95.994-16.895l92.923 198.901c-10.97 7.767-18.044 20.408-18.044 34.702 0 6.708 1.558 13.051 4.331 18.69l-0.111-0.249c7.33 14.511 22.122 24.289 39.198 24.289 6.38 0 12.441-1.365 17.908-3.819l-0.277 0.112c14.724-6.904 24.739-21.602 24.739-38.639 0-6.668-1.534-12.978-4.268-18.596l0.111 0.252c-7.096-14.565-21.788-24.424-38.784-24.424-3.848 0-7.577 0.505-11.127 1.453l0.3-0.068-92.002-196.905c57.958-18.251 108.303-44.959 152.56-79.163l-1.119 0.831 85.551 79.253c-4.188 6.518-6.675 14.475-6.675 23.012 0 12.434 5.277 23.636 13.714 31.488l0.026 0.024c16.588 15.36 45.156 14.284 60.515-2.304 6.552-7.507 10.548-17.394 10.548-28.213 0-23.751-19.255-43.006-43.006-43.006-9.241 0-17.803 2.915-24.813 7.876l0.135-0.090-83.861-77.717c97.837-80.79 159.735-197.979 162.346-328.071h3.072c15.206 0 27.34-12.287 27.34-27.34v-18.584c0-15.052-12.287-27.34-27.186-27.34h-958.258c-14.898 0-27.186 12.287-27.186 27.34v18.584c0 15.052 12.287 27.34 27.186 27.34h3.379c2.304 127.174 62.665 242.368 157.432 322.85l-130.552 166.34c-5.832-3.183-12.773-5.054-20.151-5.054-23.582 0-42.698 19.117-42.698 42.698 0 1.89 0.123 3.751 0.361 5.576l-0.023-0.215c1.383 11.52 7.065 21.503 16.127 28.721 18.124 14.131 46.078 10.752 60.208-7.372 5.729-7.183 9.193-16.395 9.193-26.415 0-10.942-4.13-20.918-10.917-28.456l0.034 0.038 130.092-166.033c52.221 41.47 114.119 72.802 181.699 90.311l-39.934 195.522h-1.075c-23.098 0.83-41.507 19.755-41.507 42.979 0 20.167 13.881 37.092 32.61 41.741l0.295 0.062c22.886 4.608 46.078-10.752 50.685-33.329 0.581-2.636 0.913-5.663 0.913-8.768 0-17.911-11.067-33.237-26.738-39.511l-0.286-0.101 39.934-195.061c31.486 6.912 63.894 11.058 97.223 11.98 1.383 15.36 3.072 30.718 4.915 46.078l1.383 11.673 0.768 5.837 1.536 11.52c15.052 113.197 38.244 217.639 38.398 219.022l30.564 113.505c3.686 14.131 12.748 26.11 25.496 33.329l0.461 0.154c1.843 19.967-2.457 29.643-6.143 33.79-3.445 3.594-8.285 5.827-13.646 5.827-0.82 0-1.629-0.052-2.422-0.154l0.094 0.010c-15.206-1.229-25.496-45.616-27.8-75.26-0.768-6.143-7.68-59.747-35.941-66.659-0.308 0-2.151-0.614-4.608-0.614-3.994 0-9.829 1.075-15.206 5.99-12.595 11.212-15.36 35.941-8.755 75.567 0.308 0.922 8.755 35.633-11.98 42.238l-125.177 35.326c-2.976 1.103-5.058 3.917-5.058 7.219 0 4.241 3.438 7.68 7.68 7.68 0.54 0 1.066-0.055 1.575-0.162l-0.050 0.009zM988.134-3.559h-958.105c-6.497-0.085-11.741-5.329-11.826-11.818v-18.592c0-6.604 5.375-11.98 11.826-11.98h958.105c6.604 0 11.826 5.375 11.826 11.98v18.584c0 0 0 0.001 0 0.001 0 6.562-5.277 11.893-11.818 11.979h-0.008zM495.105 435.099c-31.793-0.768-62.973-4.761-92.769-11.52l12.441-60.822c0.098-0.461 0.155-0.992 0.155-1.536 0-4.242-3.439-7.681-7.681-7.681-3.698 0-6.786 2.614-7.517 6.095l-0.009 0.050-12.287 60.361c-192.143-50.070-335.137-214.874-338.823-408.247h920.782c-2.457 125.945-62.973 239.603-158.199 317.32l-107.514-99.834c-1.356-1.225-3.161-1.975-5.141-1.975-2.212 0-4.205 0.935-5.607 2.431l-0.004 0.004c-1.313 1.376-2.122 3.244-2.122 5.3 0 2.209 0.933 4.2 2.425 5.601l0.004 0.004 105.825 98.145c-71.26 54.292-159.984 89.127-256.517 95.158l-1.364 0.068-7.526-15.974c8.908-1.536 17.663-3.84 26.11-7.526 2.661-1.25 4.471-3.908 4.471-6.988 0-4.251-3.446-7.697-7.697-7.697-1.17 0-2.279 0.261-3.272 0.729l0.047-0.020c-34.098 15.36-82.325 4.608-82.939 4.608-0.735-0.257-1.582-0.406-2.464-0.406-4.241 0-7.68 3.438-7.68 7.68 0 3.919 2.935 7.152 6.727 7.622l0.037 0.004c0.922 0.154 11.826 2.611 26.725 3.686l1.229 15.052zM187.769 81.223c4.241 0 7.68-3.438 7.68-7.68s-3.438-7.68-7.68-7.68v0h-43.62c-4.241 0-7.68 3.438-7.68 7.68s3.438 7.68 7.68 7.68v0zM421.535 81.223c4.241 0 7.68-3.438 7.68-7.68s-3.438-7.68-7.68-7.68v0h-166.955c-4.241 0-7.68 3.438-7.68 7.68s3.438 7.68 7.68 7.68v0zM637.023 882.050c-3.079 0.866-6.615 1.364-10.267 1.364-4.574 0-8.964-0.781-13.047-2.217l0.275 0.084c-1.229-7.68-3.072-16.127-5.683-25.189-0.614-1.843-1.536-5.069-1.843-8.755 5.375 5.375 14.131 7.986 22.886 5.683 12.287-3.379 19.967-14.898 17.049-25.65l-23.038-86.011c-2.151-8.601-10.598-14.438-20.735-14.438-8.431 0.012-15.924 4.019-20.689 10.228l-0.045 0.062c-3.532 4.761-4.608 10.752-3.226 16.281l17.97 67.273c-0.614 0.922-1.536 1.997-1.997 3.072-8.294 15.82-1.229 36.094-1.075 36.862l1.843 7.065c-3.072-3.994-5.375-8.601-6.758-13.669l-30.258-113.197c-0.308-1.229-24.114-108.743-39.166-223.629l-1.536-11.366c-2.984-21.625-5.933-51.080-8.024-80.772l-0.269-4.778 8.294-0.308c62.358 127.788 116.269 299.043 116.729 300.886l13.363 49.149 2.304 8.294 15.052 55.293c0.83 3.028 1.307 6.505 1.307 10.094 0 18.254-12.342 33.624-29.136 38.223l-0.278 0.065zM932.227 479.333c-15.060-0.271-27.165-12.543-27.165-27.642 0-7.095 2.673-13.566 7.067-18.461l-0.023 0.026c9.983-10.905 28.107-11.673 38.858-1.536 5.259 5.042 8.527 12.124 8.527 19.969 0 15.134-12.162 27.429-27.245 27.644h-0.020zM40.474 566.572c-0.075 0.001-0.165 0.001-0.255 0.001-15.099 0-27.34-12.24-27.34-27.34 0-6.542 2.298-12.548 6.13-17.253l-0.039 0.050c8.908-11.366 26.878-13.669 38.398-4.608 6.533 5.047 10.7 12.883 10.7 21.693 0 6.456-2.238 12.39-5.98 17.067l0.042-0.054c-5.051 6.384-12.799 10.444-21.495 10.444-0.057 0-0.114 0-0.171-0.001h0.009zM762.201 693.44c-15.222-0.061-27.539-12.416-27.539-27.646 0-3.303 0.58-6.472 1.642-9.408l-0.061 0.193c2.611-6.912 7.68-12.287 14.284-15.36 13.363-6.451 30.258-0.154 36.555 13.055 1.672 3.436 2.65 7.475 2.65 11.743 0 10.934-6.419 20.368-15.692 24.742l-0.167 0.070c-3.686 1.843-7.68 2.611-11.673 2.611zM343.356 700.812c-1.843 0-3.686-0.308-5.529-0.614-12.663-2.699-22.023-13.791-22.023-27.068 0-1.889 0.19-3.734 0.551-5.516l-0.030 0.177c3.072-14.591 17.817-24.575 32.561-21.503 12.67 2.551 22.079 13.591 22.079 26.828 0 1.976-0.21 3.902-0.608 5.759l0.032-0.18c-2.658 12.691-13.744 22.090-27.029 22.117h-0.003zM622.586 838.583c-3.072 0-5.529-1.383-5.99-3.072l-2.611-10.137c1.536-1.075 3.226-1.997 5.529-2.611 2.898-1.142 4.912-3.917 4.912-7.164 0-4.241-3.438-7.68-7.68-7.68-0.433 0-0.857 0.036-1.271 0.105l0.045-0.006c-2.219 0.592-4.108 1.274-5.923 2.093l0.24-0.096-16.127-60.515c-0.461-1.383 0.308-2.765 0.768-3.379 1.229-1.536 3.072-2.918 5.529-3.532 3.84-1.075 8.14 0.461 8.755 2.765l23.038 86.011c0.614 2.151-1.997 5.683-6.297 6.758-0.868 0.269-1.869 0.436-2.905 0.46h-0.013z" />
<glyph unicode="&#xe911;" glyph-name="tailor-model" horiz-adv-x="709" d="M263.591 959.986c2.127 0 3.939-1.734 3.939-3.939v-20.169c0-0.473 4.255-25.37 39.552-28.049 1.339-0.235 25.685-4.018 38.291-19.225 0.473-0.552 0.788-1.26 0.866-1.97 0.235-1.339 2.758-22.455-7.091-48.535 6.54-3.309 15.994-13.080 11.66-30.176-0.709-1.576-10.715-24.188 12.449-45.066 0.901-0.728 1.472-1.833 1.472-3.071 0-2.176-1.763-3.939-3.939-3.939-1.102 0-2.096 0.453-2.811 1.18l-0.001 0.001c-10.781 8.708-17.618 21.925-17.618 36.739 0 5.906 1.086 11.558 3.070 16.767l-0.108-0.323 0.079 0.314c3.231 12.842-4.255 18.595-7.249 20.327-4.728-10.242-11.425-21.114-21.114-31.593 0 0-5.515-7.328-10.007-18.121 7.8-12.371 14.969-27.655 20.486-46.879 0.235-0.866 6.382-41.443 40.182-61.928l-1.418 0.788c20.492-11.455 53.325-27.882 86.616-43.496l13.446-5.668c85.878-40.734 125.431-61.298 171.129-91.237 67.205-44.121 87.297-98.012 64.607-152.297-19.303-46.327-69.335-89.189-128.661-113.298-31.593-12.842-65.473-17.807-118.262-19.855-6.303-0.314-11.267-0.473-22.848-0.788-65.473-2.048-93.127-5.043-122.91-16.546-38.763-14.969-64.843-43.018-79.576-90.37-20.958-66.891-5.2-131.34 42.152-197.601 0.344-0.574 0.551-1.268 0.551-2.008 0-2.176-1.763-3.939-3.939-3.939-1.195 0-2.265 0.532-2.988 1.372l-0.004 0.005c-48.614 68.151-65 135.043-43.334 204.535 15.522 49.637 43.334 79.497 84.304 95.333 30.886 11.897 59.091 14.969 125.431 17.017l22.848 0.788c52.001 2.048 85.092 6.855 115.661 19.303 57.516 23.399 105.971 64.921 124.407 109.044 21.114 50.662 2.521 100.534-61.769 142.764-27.396 18.207-59.515 36.71-92.788 53.24l-5.304 2.384-6.855 3.466c1.287 0.418-20.125 10.952-41.645 21.297l-23.591 10.218-7.328 3.466-7.406 3.466c-33.564 15.994-55.862 26.867-77.449 38.055l-5.436 2.837-0.552 0.314c-0.243 0.096-0.452 0.201-0.647 0.325l0.018-0.010-0.394 0.235-1.104 0.552c-0.363 0.198-0.674 0.433-0.945 0.708l-0.001 0.001c-35.376 22.77-41.521 64.054-41.758 65.866-4.192 14.703-9.725 27.518-16.663 39.41l0.433-0.805c-1.346-4.662-2.148-10.025-2.205-15.566v-23.197s1.497-26.473 18.2-50.502c0.788-1.025 23.873-30.333 22.692-112.667-0.057-1.322-0.76-2.47-1.796-3.142l-0.015-0.009c-1.104-0.709-24.504-15.128-82.413-20.169v-105.577h45.697c6.855 0 12.449-5.515 12.449-12.371v-4.097h83.752c2.176 0 3.939-1.763 3.939-3.939s-1.763-3.939-3.939-3.939v0h-394.178c-2.176 0-3.939 1.763-3.939 3.939s1.763 3.939 3.939 3.939v0h156.788v4.097c0 6.855 5.594 12.449 12.527 12.449h45.697v105.892c-42.939 4.097-66.183 13.394-74.928 17.57l-1.734 0.866-2.364 1.339c-1.127 0.695-1.87 1.912-1.891 3.306v0.003c-1.182 82.255 21.825 111.564 22.848 112.826 16.546 23.793 18.121 50.188 18.121 50.424v23.006c0 23.243-15.678 43.57-15.758 43.806-19.414 20.471-31.353 48.197-31.353 78.712 0 2.966 0.113 5.906 0.334 8.814l-0.023-0.387c0.084 0.751 0.367 1.424 0.795 1.978l-0.008-0.009c12.685 15.206 37.031 18.987 38.055 19.146 3.704 0.314 7.091 0.866 10.085 1.576-1.576 8.667-0.552 14.182 3.231 16.939 5.831 4.255 14.655-0.473 19.54-3.783 4.963 5.831 6.618 11.581 7.013 13.394l0.079 0.473v19.776c0 2.127 1.734 3.861 3.939 3.861h48.614zM466.864 423.989c2.176 0 3.939-1.763 3.939-3.939s-1.763-3.939-3.939-3.939v0h-20.486c-2.176 0-3.939 1.763-3.939 3.939s1.763 3.939 3.939 3.939v0h20.486zM301.881 432.655h-128.582c0 0 0 0-0.001 0-2.539 0-4.603-2.037-4.648-4.565v-4.102h137.879v4.097c-0.044 2.534-2.108 4.57-4.648 4.57-0.027 0-0.055 0-0.085-0.001h0.004zM226.875 545.639v-105.104h21.431v104.868l-8.903-0.552h-0.314c-5.35 0.269-9.582 0.551-13.796 0.89l1.584-0.103zM183.069 901.682c-3.388-0.788-7.091-1.497-11.032-1.813 0 0-21.194-3.309-32.146-15.522-0.552-6.934-2.048-45.697 29.309-79.891 0.945-1.182 17.648-22.927 17.648-48.849v-23.164c0-1.339-1.576-29.073-19.696-54.994l-0.552-0.866-0.473-0.631c-4.332-6.618-20.8-36.478-20.169-104.238 7.091-3.624 35.298-16.23 93.285-19.146 58.303 2.915 86.352 15.522 93.285 19.146 0.788 77.212-20.8 105.182-21.036 105.498-10.794 15.505-17.945 34.299-19.821 54.619l-0.034 0.453v23.321c0 8.824 1.97 17.176 4.57 24.423-1.576 2.364-3.231 4.648-4.885 6.696-4.412-2.048-10.872-4.412-17.963-4.412-2.6 0-5.279 0.314-7.88 1.104-8.43 2.364-14.89 8.667-19.303 18.516-0.42 0.617-0.671 1.38-0.671 2.2 0 2.176 1.763 3.939 3.939 3.939 1.837 0 3.381-1.258 3.817-2.959l0.007-0.026c3.466-7.642 8.273-12.449 14.339-14.182 6.618-1.813 13.551 0 18.437 2.127-20.248 22.692-40.419 27.97-40.734 28.049-32.855 12.999-46.327 35.69-59.8 73.037-0.945 2.758-1.734 5.2-2.364 7.563zM230.342 807.137c1.97-0.866 2.837-3.152 1.97-5.2-4.412-9.928-10.872-16.151-19.303-18.516-2.6-0.788-5.279-1.104-7.88-1.104-8.834 0.401-16.947 3.167-23.815 7.673l0.179-0.11c-0.774 0.721-1.254 1.746-1.254 2.882 0 2.176 1.763 3.939 3.939 3.939 0.598 0 1.165-0.133 1.672-0.373l-0.023 0.010c0.158 0 13.394-8.745 25.056-5.357 6.067 1.734 10.872 6.461 14.26 14.182 0.634 1.376 2.002 2.314 3.589 2.314 0.584 0 1.138-0.126 1.637-0.355l-0.024 0.010zM259.65 952.186h-40.812v-16.309c0-0.709-3.545-22.534-28.206-31.91 0.552-2.127 1.339-4.412 2.364-7.091 12.92-36.007 24.897-56.412 54.679-68.23 1.104-0.235 23.637-6.145 45.697-31.91 0.442 0.191 0.956 0.302 1.497 0.302 2.133 0 3.861-1.728 3.861-3.861 0-0.786-0.235-1.518-0.639-2.128l0.009 0.014 1.654-2.364c2.823 5.964 5.922 11.081 9.471 15.844l-0.173-0.243c18.376 19.562 29.665 45.969 29.665 75.014 0 1.8-0.043 3.588-0.129 5.367l0.010-0.251c-11.032 12.212-32.146 15.522-32.303 15.6-41.521 3.152-46.565 34.983-46.643 35.298v16.782zM170.857 838.494c4.575-10.399 10.563-19.314 17.845-26.986l-0.038 0.041c0.804-0.724 1.305-1.768 1.305-2.929 0-2.176-1.763-3.939-3.939-3.939-1.22 0-2.311 0.555-3.033 1.426l-0.005 0.008c-7.882 8.278-14.4 17.947-19.127 28.588l-0.255 0.642c-0.207 0.464-0.328 1.006-0.328 1.576 0 2.183 1.769 3.952 3.952 3.952 1.613 0 3-0.966 3.613-2.35l0.010-0.024zM159.433 873.475c2.206 0 3.939-1.734 3.939-3.939 0 0 0-4.412 1.26-11.109 0.148-0.397 0.233-0.855 0.233-1.335 0-2.176-1.763-3.939-3.939-3.939-2.119 0-3.848 1.672-3.936 3.768v0.008c-0.815 3.721-1.352 8.056-1.495 12.49l-0.003 0.115c0 2.206 1.813 3.939 3.939 3.939zM189.056 919.961s-1.418-1.576-0.314-8.273c3.704 1.576 6.776 3.309 9.297 5.2-3.939 2.364-7.88 3.861-8.982 3.073z" />
<glyph unicode="&#xe912;" glyph-name="minus" d="M974.452 497.548c27.365 0 49.548-22.184 49.548-49.548s-22.184-49.548-49.548-49.548h-924.903c-27.365 0-49.548 22.184-49.548 49.548s22.184 49.548 49.548 49.548h924.903z" />
<glyph unicode="&#xe913;" glyph-name="plus" d="M512 927.999c25.655 0 46.451-20.797 46.451-46.451v-387.097h387.097c25.655 0 46.451-20.797 46.451-46.451s-20.797-46.451-46.451-46.451h-387.097v-387.097c0-25.655-20.797-46.451-46.451-46.451s-46.451 20.797-46.451 46.451v387.097h-387.097c-25.655 0-46.451 20.797-46.451 46.451s20.797 46.451 46.451 46.451h387.097v387.097c0 25.655 20.797 46.451 46.451 46.451z" />
<glyph unicode="&#xe914;" glyph-name="cotton" d="M776.68 703.050c-8.963 140.317-124.964 250.729-266.752 250.729s-257.789-110.412-266.712-249.947l-0.040-0.781c-137.244-15.92-242.783-131.478-242.783-271.687 0-143.464 110.497-261.12 251.029-272.505l0.971-0.063c4.352-6.144 8.96-12.288 13.824-17.92 55.296-65.024 134.912-100.608 230.912-103.424v-82.432c0-7.069 5.731-12.8 12.8-12.8s12.8 5.731 12.8 12.8v0 82.432c96 2.816 175.616 38.4 230.912 103.168 5.12 5.888 9.472 12.032 13.824 17.92 143.358 9.217 256.142 127.749 256.142 272.622 0 141.623-107.78 258.072-245.79 271.799l-1.137 0.092zM509.928 63.050c-199.168 0-291.072 144.128-295.68 291.072 60.672 6.4 112.896 0 155.392-18.944 1.508-0.676 3.269-1.069 5.122-1.069 6.995 0 12.68 5.611 12.798 12.578v0.011c0.512 35.84 13.568 124.672 122.368 192.512 108.8-67.84 121.856-156.928 122.368-192.512 0.118-6.978 5.803-12.589 12.798-12.589 1.853 0 3.613 0.394 5.203 1.102l-0.081-0.032c33.442 13.875 72.282 21.933 113.004 21.933 14.953 0 29.652-1.086 44.023-3.185l-1.634 0.196c-4.608-146.944-96.512-291.072-295.68-291.584zM785.64 186.186c28.683 50.482 45.59 110.898 45.59 175.262 0 1.385-0.008 2.767-0.023 4.148l0.002-0.211c0 0.037 0.001 0.082 0.001 0.126 0 6.437-4.752 11.765-10.939 12.666l-0.069 0.008c-16.526 2.755-35.569 4.33-54.979 4.33-38.727 0-75.99-6.268-110.83-17.844l2.481 0.714c-5.12 47.872-30.464 134.4-140.288 199.68-1.896 1.172-4.195 1.867-6.656 1.867s-4.76-0.695-6.711-1.898l0.055 0.032c-110.080-65.28-135.168-151.808-140.288-199.68-46.080 16.384-100.864 20.736-163.328 12.8-6.257-0.909-11.009-6.237-11.009-12.674 0-0.044 0-0.089 0.001-0.133v0.007c0-65.536 15.872-127.488 45.568-179.2-119.699 18.923-210.135 121.364-210.135 244.928 0 131.622 102.617 239.277 232.212 247.325l0.707 0.035c6.736 0.411 12.043 5.975 12.043 12.778 0 0.188-0.004 0.375-0.012 0.561l0.001-0.027v3.328l-0.256 4.352c6.104 128.457 111.735 230.293 241.152 230.293s235.048-101.837 241.131-229.747l0.021-0.546v-4.352l-0.256-3.328c-0.256-6.912 5.12-12.8 12.032-13.312 130.302-8.083 232.919-115.738 232.919-247.36 0-123.563-90.436-226.004-208.728-244.744l-1.407-0.184z" />
<glyph unicode="&#xe915;" glyph-name="leather" d="M630.82 960c3.619 0 6.786-2.505 7.587-6.027 1.38-5.958 36.159-145.733 258.040-145.733 3.48 0 6.543-2.298 7.494-5.623l40.091-139.568c0.615-2.113 0.29-4.387-0.893-6.246-1.16-1.859-3.074-3.141-5.243-3.522-6.229-1.097-152.453-29.050-156.177-222.849-3.295-169.483 160.33-278.766 161.988-279.851 1.821-1.201 3.063-3.094 3.399-5.253 0.336-2.136-0.232-4.33-1.589-6.027l-102.49-128.98c-2.633-3.314-7.436-3.891-10.8-1.386-0.534 0.404-54.8 40.261-143.811 40.261-11.856 0-23.966-0.716-36.008-2.113-76.841-8.925-133.080-106.177-133.637-107.158-1.38-2.425-3.967-3.926-6.775-3.926s-5.383 1.501-6.775 3.926c-0.557 0.981-56.923 98.245-133.625 107.158-12.041 1.397-24.164 2.113-36.019 2.113-89.335 0-143.265-39.845-143.799-40.249-3.387-2.552-8.19-1.94-10.812 1.374l-102.49 128.98c-1.346 1.697-1.926 3.879-1.578 6.027 0.336 2.148 1.578 4.041 3.399 5.242 1.659 1.074 165.283 110.356 161.988 279.851-3.314 172.349-122.445 214.086-150.364 221.491l-2.674 0.676c-1.91 0.458-3.004 0.661-3.127 0.681-2.169 0.381-4.083 1.663-5.267 3.522-1.172 1.87-1.496 4.145-0.893 6.258l40.091 139.568c0.963 3.325 4.014 5.623 7.494 5.623 222.554 0 257.715 144.255 258.052 145.71 0.8 3.533 3.956 6.050 7.598 6.050zM625.031 944.495h-226.046c-9.605-28.68-62.19-149.439-265.557-151.726l-36.263-126.244c1.771-0.495 3.792-1.094 6.030-1.81l4.76-1.593c43.621-15.235 146.758-68.535 149.922-232.388 3.051-157.429-129.936-264.633-162.093-288.21l92.908-116.926c17.343 11.003 69.22 39.118 146.896 39.118 12.459 0 25.196-0.739 37.829-2.205 69.104-8.048 120.691-76.792 138.59-104.018 17.899 27.237 69.475 95.982 138.59 104.018 12.644 1.466 25.37 2.205 37.829 2.205 77.676 0 129.554-28.114 146.896-39.118l92.908 116.926c-32.168 23.577-165.155 130.781-162.081 288.21 3.445 179.586 127.025 226.382 160.689 235.792l-36.263 126.244c-203.356 2.286-255.94 123.045-265.546 151.726zM521.625 49.983c1.508 1.386 4.060 1.27 5.591-0.231 0.708-0.693 1.044-1.605 1.044-2.656 0-1.039-0.464-2.067-1.16-2.759-4.408-4.191-8.422-8.267-12.238-12.296-0.742-0.785-1.763-1.224-2.842-1.224s-2.111 0.439-2.842 1.224c-3.817 4.030-7.83 8.094-12.053 12.135-1.601 1.547-1.601 3.972-0.209 5.473 0.545 0.543 1.195 0.612 1.821 0.808 1.322 0.393 2.738 0.346 3.747-0.589 3.295-3.21 6.473-6.396 9.524-9.549 2.981 3.083 6.090 6.177 9.304 9.26 0.081 0.081 0.116 0.208 0.197 0.289zM446.923 90.873l1.155-0.353c0.232-0.127 0.464-0.242 0.58-0.358 9.28-5.196 18.793-11.431 28.073-18.347 1.624-1.282 1.972-3.706 0.696-5.438-0.696-0.912-1.972-1.501-3.132-1.501-0.812 0-1.624 0.231-2.32 0.808-9.048 6.812-18.329 12.828-27.609 18.012-1.16 0.704-1.972 1.974-1.972 3.348 0 0.693 0.232 1.27 0.464 1.847 1.044 1.743 3.364 2.552 5.22 1.628zM576.031 90.521c1.74 1.028 4.292 0.219 5.22-1.501 0.348-0.589 0.464-1.155 0.464-1.847 0-1.386-0.696-2.656-1.856-3.348-0.104-0.127-0.22-0.242-0.348-0.242-9.164-5.069-18.433-11.084-27.365-17.781-0.696-0.566-1.508-0.797-2.32-0.797-1.16 0-2.332 0.577-3.144 1.501-0.464 0.681-0.696 1.501-0.696 2.309 0 1.155 0.464 2.298 1.392 3.002l0.464 0.462c9.28 6.928 18.677 13.047 28.189 18.243zM830.080 101.316c1.346 1.697 3.793 1.974 5.487 0.635s1.972-3.764 0.65-5.45l-10.8-13.59c-0.766-0.958-1.891-1.478-3.063-1.478-0.522 0-1.044 0.092-1.531 0.312-4.965 2.124-10.278 4.214-15.962 6.281-0.998 0.358-1.752 1.085-2.169 1.974-0.418 0.935-0.452 1.847-0.197 2.748 0.023 0.092-0.058 0.185-0.023 0.289l0.22 0.231c0.383 0.843 1.021 1.524 1.81 1.894 0.893 0.427 1.879 0.485 2.842 0.185 0.302-0.023 0.36-0.081 0.429-0.115 4.687-1.709 9.164-3.452 13.364-5.184zM190.618 102.563c1.253 0.104 2.494-0.185 3.295-1.201l8.967-11.315c4.281 1.767 8.816 3.545 13.596 5.277l1.383 0.293c1.626 0.055 3.22-0.998 3.767-2.568 0.232-0.346 0.232-0.808 0.232-1.27 0-1.039-0.499-1.917-1.195-2.644-0.197-0.219-0.429-0.393-0.684-0.577-0.209-0.139-0.325-0.358-0.557-0.462l-0.244-0.023c-5.707-2.090-11.032-4.18-15.985-6.304-0.499-0.208-1.021-0.312-1.531-0.312-1.16 0-2.297 0.52-3.051 1.478l-10.788 13.59c-0.65 0.82-0.893 1.824-0.8 2.794 0.058 0.727 0.534 1.316 1.021 1.905 0.186 0.231 0.174 0.543 0.418 0.739 0.638 0.496 1.404 0.554 2.158 0.6zM383.812 112.689c11.136-1.628 22.273-4.387 33.293-8.198 1.508-0.589 2.552-1.963 2.552-3.591 0-0.462 0-0.924-0.232-1.386-0.464-1.501-1.972-2.54-3.712-2.54-0.348 0-0.812 0-1.16 0.115-10.44 3.706-20.997 6.362-31.437 7.863h-0.58c-1.856 0.335-3.132 1.963-3.132 3.81v0.577c0.348 2.182 2.32 3.579 4.408 3.348zM640.402 112.677c2.1 0.346 4.072-1.27 4.397-3.337v-0.577c0-1.847-1.508-3.475-3.353-3.81-10.684-1.501-21.356-4.053-31.785-7.736-0.464-0.127-0.812-0.242-1.276-0.242-1.612 0-3.121 1.028-3.712 2.656-0.116 0.335-0.116 0.797-0.116 1.259 0 1.628 1.044 3.129 2.552 3.591 10.904 3.81 22.157 6.57 33.293 8.198zM282.293 111.869l1.343-0.042c1.674-0.297 2.918-1.516 3.196-3.179v-0.577c0-1.963-1.392-3.568-3.364-3.81-11.020-1.616-21.925-3.822-32.481-6.466-0.348-0.115-0.58-0.115-0.928-0.115-1.74 0-3.364 1.155-3.828 2.886 0 0.335-0.116 0.693-0.116 1.039 0 1.72 1.276 3.221 3.016 3.683 10.904 2.771 22.041 4.965 33.061 6.581zM741.917 111.869c11.252-1.732 22.273-3.926 33.177-6.581 1.044-0.335 1.856-1.039 2.332-1.847 0.58-0.924 0.696-1.847 0.464-2.886-0.464-1.732-1.972-2.886-3.712-2.886-0.348 0-0.696 0-1.044 0.115-10.324 2.54-21.124 4.734-32.145 6.35h-0.336c-1.984 0.462-3.26 1.963-3.26 3.926v0.577c0.348 2.078 2.32 3.579 4.408 3.233zM674.634 115.564c10.672 0.346 22.621 0.231 33.409-0.346 2.088-0.115 3.712-1.732 3.712-3.822-0.116-2.309-1.74-3.926-3.828-3.926h-0.348c-10.568 0.577-21.577 0.693-33.061 0.231-2.332 0-3.944 1.628-4.060 3.81 0 2.205 1.624 3.81 3.596 3.926 0.104 0.127 0.22 0.127 0.348 0.127zM316.065 115.217c10.904 0.577 21.809 0.693 33.989 0.231 1.972 0 3.712-1.732 3.712-3.799-0.116-2.205-1.856-3.937-3.944-3.937-10.092 0.462-21.229 0.462-32.945-0.115-0.116-0.115-0.232-0.115-0.348-0.115-2.32 0-3.944 1.605-4.060 3.695 0 2.309 1.624 3.926 3.596 4.041zM846.425 150.213c1.508 1.386 4.060 1.501 5.452 0 0.174-0.173 0.232-0.162 0.278-0.196 4.327-4.157 8.55-8.082 12.61-11.731 1.52-1.374 1.705-3.672 0.441-5.277l-10.8-13.59c-0.777-0.97-1.914-1.478-3.063-1.478-0.708 0-1.357 0.312-1.984 0.693-0.162 0.092-0.325 0.046-0.487 0.162-1.636 1.386-1.972 3.81-0.592 5.438l8.55 10.761c-3.248 2.956-6.601 6.096-10.023 9.387-0.267 0.173-0.267 0.289-0.267 0.289-0.824 0.808-1.172 1.732-1.288 2.771 0 1.039 0.464 1.963 1.172 2.771zM174.684 150.879l1.004-0.227c0.568-0.185 1.183-0.231 1.636-0.681 1.52-1.582 1.485-4.041-0.081-5.531-3.434-3.314-6.809-6.466-10.081-9.456l8.538-10.761c1.334-1.686 1.056-4.122-0.638-5.45-0.719-0.566-1.566-0.831-2.413-0.831-1.148 0-2.285 0.508-3.051 1.478l-10.788 13.59c-1.276 1.605-1.079 3.914 0.441 5.277 4.049 3.649 8.26 7.563 12.575 11.719 1.114 1.051 2.54 1.074 3.863 0.647zM215.837 198.244c1.276 1.501 3.828 1.836 5.452 0.589 0.928-0.704 1.508-1.847 1.508-3.002 0-0.924-0.348-1.732-0.928-2.436-6.728-8.429-13.921-16.857-21.461-25.17-0.812-0.924-1.856-1.386-2.9-1.386s-1.972 0.462-2.668 1.039c-0.812 0.693-1.16 1.616-1.276 2.656 0 1.039 0.348 2.078 1.044 2.886 7.424 8.082 14.617 16.395 21.229 24.824zM802.46 199.030c1.624 1.386 4.176 1.039 5.452-0.577 6.728-8.417 13.921-16.857 21.229-24.824 0.696-0.681 1.044-1.605 1.044-2.644s-0.464-2.067-1.276-2.771c-0.8-0.693-1.728-1.039-2.656-1.039-1.044 0-2.088 0.462-2.912 1.259-7.552 8.198-14.744 16.73-21.472 25.055-0.58 0.808-0.916 1.732-0.916 2.656 0 1.166 0.58 2.194 1.508 2.886zM252.727 251.806c1.044 1.847 3.48 2.425 5.336 1.386 1.16-0.577 1.856-1.847 1.972-3.233 0-0.681-0.232-1.386-0.58-2.078-5.336-9.121-11.368-18.589-17.749-27.941-0.812-1.028-1.972-1.732-3.248-1.732-0.812 0-1.508 0.358-2.204 0.704-1.044 0.797-1.624 1.963-1.624 3.221 0 0.808 0.232 1.489 0.696 2.194 6.264 9.121 12.064 18.358 17.401 27.479zM765.698 253.55c1.844 1.039 4.281 0.45 5.336-1.386 5.336-9.121 11.136-18.37 17.505-27.479 0.348-0.693 0.58-1.386 0.58-2.194 0.104-1.27-0.58-2.529-1.624-3.233-0.696-0.462-1.392-0.693-2.204-0.693-1.276 0-2.436 0.681-3.248 1.72-6.264 9.121-12.285 18.589-17.737 27.941-0.348 0.704-0.464 1.386-0.464 2.090 0 1.386 0.684 2.529 1.856 3.233zM284.358 313.046l1.198-0.266c1.508-0.462 2.552-1.963 2.552-3.602 0-0.462-0.116-0.924-0.232-1.386-3.828-10.16-8.12-20.436-12.876-30.481-0.696-1.386-2.088-2.309-3.596-2.309-0.58 0-1.16 0.115-1.624 0.462-1.392 0.577-2.204 1.963-2.204 3.464 0 0.589 0.116 1.166 0.348 1.628 4.64 9.814 8.816 19.744 12.528 29.558 0 0.104 0 0.231 0.116 0.346 0.812 2.078 3.016 3.117 4.988 2.321zM738.309 313.115c1.856 0.82 4.292-0.219 4.988-2.182 3.712-10.16 8.016-20.205 12.644-30.031 0.232-0.462 0.348-1.039 0.348-1.616 0-1.501-0.928-2.886-2.192-3.464-0.58-0.346-1.16-0.462-1.74-0.462-1.508 0-2.9 0.924-3.492 2.309-4.756 9.814-9.048 20.090-12.876 30.481-0.232 0.462-0.232 0.924-0.232 1.386 0 1.616 0.928 3.117 2.552 3.579zM301.681 376.387c1.856-0.346 3.248-1.963 3.248-3.914v-0.577c-1.856-10.865-4.176-21.718-6.96-32.456-0.464-1.616-2.088-2.886-3.828-2.886-0.348 0-0.696 0.115-1.044 0.242-1.624 0.335-2.9 1.963-2.784 3.683 0 0.346 0 0.693 0.116 0.924 2.784 10.507 5.104 21.245 6.728 31.751 0.348 2.067 2.32 3.579 4.524 3.233zM722.196 376.734c2.32 0.346 4.176-1.155 4.524-3.233 1.74-10.507 3.944-21.129 6.728-31.763 0.116-0.231 0.116-0.577 0.116-0.924 0.116-1.732-1.148-3.348-2.784-3.81-0.336 0-0.696-0.115-1.044-0.115-1.728 0-3.364 1.259-3.828 2.886-2.784 10.622-5.104 21.475-6.844 32.329l-0.102 0.468-0.014 0.352c0 1.847 1.392 3.464 3.248 3.81zM305.161 441.853c2.088 0 3.712-1.732 3.828-3.81 0.116-1.732 0.116-3.568 0.116-5.323l0.116-1.039v-6.477c0-6.697-0.232-13.509-0.58-20.321-0.232-2.067-1.856-3.695-3.944-3.695-0.116 0-0.232 0-0.348 0.127-1.972 0.115-3.596 1.72-3.48 3.81 0.348 6.581 0.58 13.278 0.58 20.090 0 1.847 0 3.591-0.116 5.438l-0.014 4.037-0.102 3.122c0 2.194 1.624 3.926 3.712 4.041zM719.076 442.199c2.076-0.127 3.712-1.732 3.712-3.81 0-2.425-0.116-4.63-0.116-6.812v-0.242c-0.128-2.067-0.128-4.030-0.128-6.119 0-6.235 0.244-12.804 0.58-19.501 0-2.194-1.624-3.914-3.596-4.041-2.32-0.012-4.049 1.616-4.176 3.579-0.336 6.454-0.58 13.151-0.58 19.963 0 2.205 0 4.399 0.116 6.477 0 2.309 0.128 4.503 0.128 6.697 0.116 2.182 1.74 3.81 3.944 3.81zM296.692 506.857c2.088 0.462 4.176-1.039 4.64-3.002 2.204-10.622 3.944-21.591 5.22-32.675v-0.462c0.116-1.963-1.392-3.695-3.364-3.926h-0.464c-1.972 0-3.712 1.501-3.828 3.348-1.276 10.738-3.016 21.591-5.22 32.098v0.808c-0.116 1.847 1.276 3.348 3.016 3.81zM726.114 507.268l1.291-0.065c1.752-0.346 3.028-1.963 3.028-3.81v-0.808c-2.204-10.045-3.956-20.783-5.22-31.982-0.232-1.963-1.856-3.464-3.828-3.464h-0.464c-1.972 0.231-3.48 1.963-3.48 3.926v0.346c1.264 11.084 3.132 22.053 5.336 32.675 0.336 2.194 2.436 3.579 4.629 3.117zM276.044 568.974c1.972 0.924 4.292 0 5.22-1.963 4.408-9.93 8.352-20.321 11.716-31.059 0.116-0.346 0.116-0.808 0.116-1.155 0-1.732-1.044-3.233-2.668-3.695-0.464-0.115-0.812-0.231-1.16-0.231-1.74 0-3.248 1.155-3.712 2.771-3.364 10.391-7.192 20.552-11.484 30.25-0.232 0.462-0.348 1.039-0.348 1.501 0 1.616 0.928 3.002 2.32 3.579zM746.888 569.659l1.166-0.339c1.508-0.577 2.32-1.963 2.32-3.579 0-0.462-0.104-1.039-0.348-1.501-4.292-9.699-8.12-19.859-11.484-30.25-0.464-1.616-1.972-2.771-3.701-2.771-0.36 0-0.708 0.115-1.172 0.231-1.612 0.462-2.656 1.963-2.656 3.695 0 0.462 0 0.808 0.104 1.155 3.376 10.507 7.308 20.898 11.844 31.059 0.8 1.963 3.237 2.886 5.093 1.963zM241.706 624.856c1.624 1.27 4.176 0.924 5.452-0.693 6.728-8.659 12.992-17.896 18.793-27.479 0.348-0.693 0.58-1.386 0.58-2.078-0.116-1.386-0.812-2.656-1.972-3.348-0.58-0.346-1.276-0.462-1.972-0.462-1.276 0-2.552 0.693-3.248 1.732-0.116 0.231-0.232 0.346-0.232 0.346-5.452 9.121-11.484 18.012-18.097 26.556-0.58 0.693-0.812 1.501-0.812 2.309 0 1.155 0.58 2.425 1.508 3.117zM777.171 624.51c1.276 1.616 3.712 1.847 5.336 0.577 0.928-0.693 1.508-1.847 1.508-3.117 0-0.808-0.22-1.616-0.8-2.194-6.496-8.429-12.644-17.434-18.213-26.787-0.696-1.155-1.972-1.847-3.364-1.847-0.696 0-1.392 0.115-1.972 0.462-1.288 0.693-1.972 1.963-1.984 3.348 0 0.693 0.232 1.386 0.58 1.963 5.684 9.583 11.948 18.82 18.793 27.595zM194.493 670.463c1.276 1.616 3.828 1.963 5.452 0.693 1.508-1.155 2.9-2.309 4.408-3.464 7.076-5.658 14.037-11.892 20.765-18.589 0.696-0.693 1.044-1.616 1.044-2.656s-0.348-2.078-1.044-2.771c-0.812-0.693-1.74-1.155-2.784-1.155s-2.088 0.462-2.784 1.155c-6.496 6.35-13.224 12.47-20.069 17.896l-3.48 2.771-0.812 0.693c-1.044 0.693-1.624 1.847-1.508 3.117 0 0.808 0.232 1.616 0.812 2.309zM824.5 671.387c1.636 1.27 4.072 0.924 5.336-0.693 1.276-1.732 0.928-4.157-0.696-5.427s-3.132-2.425-4.64-3.695c-6.96-5.542-13.573-11.546-19.837-17.665-0.684-0.693-1.728-1.155-2.656-1.155-1.044 0-2.088 0.462-2.784 1.155-0.824 0.808-1.16 1.732-1.16 2.771s0.452 1.963 1.148 2.771c6.496 6.35 13.352 12.47 20.417 18.127 1.624 1.386 3.132 2.54 4.756 3.81zM159.366 715.345l0.906-0.107c2.204-0.554 3.48-2.748 2.9-4.826l-3.944-13.555c4.118-2.101 8.329-4.411 12.633-6.904 0.186-0.127 0.267-0.115 0.336-0.219 1.16-0.693 1.856-1.963 1.856-3.233 0-0.808-0.116-1.501-0.464-2.078-0.696-1.155-1.972-1.847-3.364-1.847-0.696 0-1.392 0.115-1.972 0.462-0.116 0.115-0.186 0.162-0.232 0.173-5.267 3.037-10.313 5.727-15.173 8.151-1.682 0.843-2.517 2.748-2.007 4.538l4.779 16.638c0.394 1.085 1.009 1.824 1.786 2.286 0.093 0.058 0.174 0.081 0.267 0.127 0.789 0.381 1.682 0.508 2.598 0.289zM863.559 715.215c2.042 0.6 4.211-0.6 4.814-2.656l4.779-16.649c0.51-1.801-0.325-3.706-2.007-4.538-4.872-2.425-9.918-5.126-15.081-8.128-0.464-0.266-0.986-0.346-1.508-0.404-0.162-0.023-0.302-0.139-0.476-0.139-1.253 0-2.622 0.693-3.329 1.928l-0.468 1.186c-0.324 1.574 0.35 3.237 1.825 4.16 4.373 2.494 8.573 4.78 12.668 6.87l-3.909 13.578c-0.58 2.067 0.615 4.214 2.691 4.792zM186.488 752.67l1.271-0.116c1.596-0.337 2.858-1.657 3.044-3.348 0.244-2.124-1.288-4.041-3.434-4.284-4.826-0.543-9.744-1.028-14.756-1.432l-4.037-14.075c-0.487-1.709-2.053-2.817-3.747-2.817-0.348 0-0.708 0.046-1.067 0.15-2.065 0.589-3.26 2.736-2.668 4.792l4.779 16.649c0.452 1.559 1.821 2.667 3.445 2.794 5.765 0.439 11.403 0.981 16.925 1.593zM837.516 752.682c5.707-0.704 11.38-1.235 17.192-1.686 1.636-0.127 3.005-1.235 3.457-2.794l4.779-16.649c0.568-1.997-0.557-4.053-2.517-4.711-0.522-0.139-0.87-0.254-1.218-0.254-0.22 0-0.383 0.162-0.592 0.196-0.858 0.139-1.554 0.52-2.146 1.132-0.429 0.45-0.882 0.912-1.102 1.559l-3.979 14.005c-5 0.416-9.918 0.901-14.756 1.443l-0.29 0.023-0.267 0.15c-0.626 0.173-1.172 0.462-1.624 0.889-0.336 0.289-0.522 0.6-0.754 0.993-0.186 0.323-0.325 0.67-0.394 1.039-0.070 0.312-0.313 0.531-0.313 0.854v0.346c0.22 2.078 2.192 3.695 4.292 3.464zM247.275 763.87c1.856 0.462 4.060-0.808 4.524-2.771 0.116-0.346 0.116-0.693 0.116-1.039 0.116-1.732-1.16-3.348-2.784-3.695-9.744-2.656-20.069-4.965-30.625-6.928h-0.812c-1.856 0-3.48 1.27-3.828 3.117-0.116 1.039 0.116 2.078 0.696 2.886 0.58 0.924 1.508 1.501 2.436 1.616 9.86 1.847 19.837 4.041 29.697 6.697 0.116 0 0.232 0 0.348 0.115zM775.535 763.958l1.195-0.089c9.628-2.54 19.721-4.849 30.057-6.697 1.844-0.346 3.121-1.963 3.237-3.81 0-0.231 0-0.462-0.116-0.693-0.348-1.847-1.972-3.233-3.828-3.233-0.232 0-0.464 0-0.696 0.115-10.568 1.963-20.892 4.157-30.637 6.812-1.74 0.462-2.9 1.963-2.889 3.81 0 0.346 0 0.693 0.128 0.924 0.58 2.078 2.773 3.233 4.745 2.771zM304.813 784.652c1.856 0.924 4.292 0.115 5.104-1.847 0.348-0.462 0.464-1.039 0.464-1.616 0-1.501-0.928-2.886-2.32-3.464-9.164-4.387-19.025-8.429-29.001-12.123-0.464-0.115-0.812-0.231-1.276-0.231-1.624 0-3.132 1.039-3.712 2.656-0.116 0.346-0.232 0.808-0.232 1.27 0 1.616 1.044 3.117 2.552 3.695 9.86 3.464 19.373 7.389 28.421 11.661zM717.909 785.119l1.167-0.351c9.048-4.272 18.549-8.198 28.305-11.777 1.508-0.577 2.552-1.963 2.552-3.579 0-0.462 0-0.924-0.244-1.386-0.464-1.501-1.972-2.54-3.596-2.54-0.464 0-0.928 0.115-1.276 0.231-10.208 3.695-19.953 7.736-29.117 12.008-1.38 0.808-2.181 2.078-2.181 3.579 0 0.577 0.104 1.155 0.336 1.616 0.928 1.963 3.364 2.771 5.22 1.847zM357.015 816.519c1.624 1.27 4.176 0.924 5.452-0.693 0.464-0.577 0.812-1.386 0.812-2.309 0-1.155-0.58-2.309-1.508-3.117-8.236-6.35-16.937-12.354-25.985-17.781-0.58-0.346-1.276-0.577-1.972-0.577-1.392 0-2.668 0.693-3.364 1.847-0.348 0.577-0.58 1.27-0.58 1.963 0 1.386 0.696 2.656 1.856 3.348 8.7 5.311 17.169 11.084 25.289 17.319zM661.41 815.942c1.264 1.616 3.701 1.963 5.336 0.808 0.232-0.115 0.232-0.231 0.36-0.231 7.877-6.119 16.229-11.892 24.929-17.203 1.16-0.693 1.856-1.963 1.856-3.348 0-0.693-0.116-1.386-0.58-1.963-0.696-1.155-1.972-1.847-3.248-1.847-0.696 0-1.392 0.231-2.088 0.577-9.048 5.542-17.865 11.546-25.869 17.781-0.928 0.808-1.508 1.847-1.508 3.117 0 0.924 0.232 1.732 0.812 2.309zM400.516 859.239c1.392 1.616 3.944 1.963 5.568 0.577 0.812-0.693 1.392-1.732 1.392-2.886 0-0.924-0.232-1.847-0.812-2.54-6.496-8.082-13.573-15.933-21.113-23.207-0.812-0.808-1.74-1.155-2.784-1.155s-1.972 0.346-2.784 1.155c-0.696 0.693-1.044 1.616-1.044 2.656s0.348 2.078 1.16 2.771c7.192 7.158 14.153 14.779 20.417 22.63zM617.908 860.048c1.508 1.27 4.176 0.924 5.452-0.693 6.264-7.736 13.108-15.356 20.394-22.63 0.824-0.693 1.172-1.732 1.172-2.656 0-1.039-0.348-2.078-1.044-2.771-0.812-0.808-1.74-1.155-2.784-1.155s-1.972 0.346-2.784 1.039c-7.413 7.389-14.501 15.125-21.113 23.323-0.568 0.924-0.928 1.847-0.8 2.886 0.116 1.039 0.696 1.963 1.508 2.656zM447.544 901.174c1.508 0 2.564-0.981 3.213-2.228 0.278-0.531 0.684-0.993 0.684-1.616l-0.21-0.73-0.358-0.655c-0.603-1.409-1.717-2.529-3.376-2.529l-15.011 0.023c-2.239-4.214-4.756-8.602-7.552-13.128-0.174-0.173-0.174-0.289-0.174-0.289-0.696-1.155-1.972-1.732-3.248-1.732-0.696 0-1.392 0.231-2.088 0.577-1.16 0.693-1.856 1.963-1.856 3.348 0 0.693 0.232 1.386 0.592 1.951 0.116 0.115 0.232 0.231 0.232 0.346l2.994 4.999c1.92 3.292 3.688 6.497 5.312 9.583 0.661 1.282 1.995 2.078 3.445 2.078zM593.872 901.174c1.45 0 2.773-0.797 3.457-2.078 2.459-4.699 5.255-9.652 8.422-14.779 0.568-0.912 0.708-1.974 0.464-2.933-0.070-0.277-0.383-0.45-0.522-0.716-0.313-0.623-0.58-1.282-1.218-1.686-0.673-0.346-1.322-0.577-1.995-0.577-0.626 0-1.172 0.185-1.694 0.427-0.684 0.323-1.288 0.774-1.682 1.42l-2.704 4.505c-1.742 2.964-3.363 5.864-4.871 8.681h-15.057c-2.158 0-3.898 1.732-3.898 3.868s1.74 3.868 3.898 3.868zM533.457 901.151c2.204 0 3.944-1.732 3.944-3.81 0-2.194-1.74-3.926-3.944-3.926h-42.922c-2.204 0-3.944 1.732-3.944 3.926 0 2.078 1.74 3.81 3.944 3.81z" />
<glyph unicode="&#xe916;" glyph-name="packaging" horiz-adv-x="1152" d="M1137.931 730.874h-442.112l-35.84 200.96h288.768c28.672 0 52.736-13.568 67.328-38.144l77.568-130.304c4.096-6.656 12.8-8.96 19.456-5.12 6.656 4.096 8.96 12.8 4.864 19.456l-77.568 130.56c-18.399 31.155-51.806 51.725-90.018 51.725-0.573 0-1.145-0.005-1.717-0.014l0.086 0.001h-745.472c-38.4 0-71.68-18.944-91.392-51.968l-110.080-184.32c-1.141-1.989-1.813-4.372-1.813-6.912 0-7.776 6.304-14.080 14.080-14.080 0.008 0 0.015 0 0.023 0h439.551v-126.72c0.341-23.633 19.578-42.66 43.26-42.66 5.426 0 10.619 0.999 15.405 2.823l-0.297-0.099 64 24.32 63.488-24.32c4.7-1.934 10.156-3.057 15.875-3.057 23.611 0 42.752 19.141 42.752 42.752 0 0.175-0.001 0.349-0.003 0.523v-0.026 126.464h425.728v-643.84c0-52.312-42.408-94.72-94.72-94.72v0h-906.24c-52.312 0-94.72 42.408-94.72 94.72v0 604.16c0 7.776-6.304 14.080-14.080 14.080s-14.080-6.304-14.080-14.080v0-604.16c0-67.865 55.015-122.88 122.88-122.88h906.24c67.865 0 122.88 55.015 122.88 122.88v0 657.92c0 7.68-6.4 14.080-14.080 14.080zM135.947 893.434c13.275 23.104 37.812 38.413 65.924 38.413 0.494 0 0.986-0.005 1.477-0.014l-0.074 0.001h289.024l-36.608-200.96h-416.768l97.28 162.816zM669.963 575.994c0.001-0.077 0.002-0.168 0.002-0.259 0-8.059-6.533-14.592-14.592-14.592-1.937 0-3.785 0.377-5.476 1.062l0.098-0.035-69.12 26.112c-1.483 0.568-3.199 0.897-4.992 0.897s-3.509-0.329-5.091-0.93l0.099 0.033-69.12-26.368c-1.513-0.619-3.268-0.978-5.107-0.978-2.978 0-5.735 0.941-7.992 2.543l0.043-0.029c-4.145 2.705-6.86 7.302-6.912 12.536v139.528l39.168 216.32h110.080l38.912-216.32v-139.52zM835.083 256.25c0 143.082-115.99 259.072-259.072 259.072s-259.072-115.99-259.072-259.072v0c0-143.082 115.99-259.072 259.072-259.072s259.072 115.99 259.072 259.072v0zM345.099 256.25c0 127.529 103.383 230.912 230.912 230.912s230.912-103.383 230.912-230.912v0c0-127.529-103.383-230.912-230.912-230.912s-230.912 103.383-230.912 230.912v0zM602.123 108.282c59.648 38.656 71.68 89.6 84.48 143.36 10.24 42.752 20.992 87.040 55.296 134.656 1.648 2.276 2.637 5.124 2.637 8.203 0 5.866-3.587 10.894-8.687 13.010l-0.093 0.034c-26.621 11.223-57.569 17.745-90.040 17.745-65.252 0-124.352-26.335-167.253-68.957l0.013 0.013c-43.767-43.038-70.888-102.885-70.888-169.067 0-31.392 6.102-61.359 17.184-88.779l-0.568 1.591c0.768-1.792 1.536-3.328 2.816-4.608l0.256-0.256c1.28-1.28 2.56-2.304 4.352-2.816h0.256l0.256-0.256h0.256c20.513-8.523 44.34-13.472 69.323-13.472 37.313 0 72.047 11.041 101.114 30.035l-0.709-0.435zM498.187 336.122c37.741 37.665 89.839 60.956 147.378 60.956 22.522 0 44.21-3.568 64.531-10.171l-1.476 0.415c-29.44-46.080-39.936-90.112-49.408-129.024-12.288-52.48-22.272-93.952-72.448-126.464-23.929-15.755-53.272-25.132-84.805-25.132-16.423 0-32.251 2.543-47.113 7.258l1.102-0.302c31.851 77.82 81.014 142.935 142.957 192.823l0.915 0.713c3.157 2.602 5.155 6.512 5.155 10.89 0 3.352-1.172 6.431-3.127 8.849l0.021-0.027c-2.602 3.157-6.512 5.155-10.89 5.155-3.352 0-6.431-1.172-8.849-3.127l0.027 0.021c-60.215-48.425-108.455-109.205-141.288-178.691l-1.304-3.069c-2.437 11.982-3.832 25.754-3.832 39.853 0 58.475 23.997 111.345 62.679 149.299l0.033 0.032z" />
<glyph unicode="&#xe917;" glyph-name="paper" d="M9.678 844.79c-5.692-1.065-9.777-5.991-9.676-11.67v-665.215c0-64.452 53.313-116.704 119.071-116.704h785.858c65.758 0 119.069 52.252 119.069 116.704v396.795c0 6.445-5.331 11.67-11.907 11.67h-202.418v256.75c-0.001 6.445-5.331 11.67-11.907 11.67h-785.858c-0.372 0.013-0.744 0.013-1.116 0-0.372 0.013-0.744 0.013-1.116 0zM23.818 821.449h762.044v-653.545c0-38.746 20.212-72.135 49.86-93.364h-716.649c-52.977 0-95.255 41.438-95.255 93.364v653.545zM128.747 716.415c-6.576-0.604-11.407-6.319-10.791-12.765s6.447-11.181 13.023-10.576h546.975c4.294-0.060 8.288 2.152 10.453 5.787s2.165 8.131 0 11.767c-2.165 3.635-6.159 5.847-10.453 5.787h-546.975c-0.372 0.017-0.744 0.017-1.116 0-0.372 0.017-0.744 0.017-1.116 0zM809.675 553.029h190.511v-385.125c0-51.925-42.278-93.364-95.255-93.364h-11.907c-1.261 0.729-2.649 1.223-4.093 1.459-45.067 7.456-79.256 45.379-79.256 91.905v385.125zM128.747 541.359c-5.692-1.065-9.777-5.991-9.676-11.67v-175.057c0.003-6.445 5.333-11.67 11.909-11.67h190.511c6.576 0 11.907 5.225 11.907 11.67v175.057c0 6.445-5.331 11.67-11.907 11.67h-190.511c-0.372 0.017-0.744 0.017-1.116 0-0.372 0.017-0.744 0.017-1.116 0zM438.328 541.359c-6.576-0.604-11.407-6.319-10.791-12.765s6.447-11.181 13.023-10.576h226.232c4.294-0.060 8.288 2.152 10.453 5.787s2.165 8.131 0 11.767c-2.165 3.635-6.159 5.847-10.453 5.787h-226.232c-0.372 0.017-0.744 0.017-1.116 0-0.372 0.017-0.744 0.017-1.116 0zM142.887 518.018h166.697v-151.716h-166.697v151.716zM438.328 366.302c-6.576-0.604-11.407-6.319-10.791-12.765s6.447-11.181 13.023-10.576h226.232c4.294-0.060 8.288 2.152 10.453 5.787s2.165 8.131 0 11.767c-2.165 3.635-6.159 5.847-10.453 5.787h-226.232c-0.372 0.017-0.744 0.017-1.116 0-0.372 0.017-0.744 0.017-1.116 0zM129.492 191.245c-6.576-0.604-11.407-6.319-10.791-12.765s6.447-11.181 13.023-10.576h546.975c4.294-0.060 8.288 2.152 10.453 5.787s2.165 8.131 0 11.767c-2.165 3.635-6.159 5.847-10.453 5.787h-546.975c-0.372 0.017-0.744 0.017-1.116 0-0.372 0.017-0.744 0.017-1.116 0v0z" />
<glyph unicode="&#xe918;" glyph-name="plastic" d="M660.841 265.087c5.896 3.47 13.447 1.411 16.837-4.585l28.025-49.389c2.204-3.891 2.204-8.669 0-12.549l-42.77-75.204c-2.204-3.868-6.276-6.246-10.673-6.246h-121.015l33.607-27.886c5.28-4.38 6.064-12.276 1.756-17.646-2.428-3.026-5.985-4.608-9.554-4.608-2.741 0-5.493 0.933-7.775 2.833l-60.412 50.128c-0.090 0.068-0.123 0.171-0.213 0.239-0.526 0.466-1.063 0.933-1.533 1.525-0.257 0.33-0.347 0.728-0.571 1.092-0.47 0.717-0.85 1.456-1.163 2.253-0.28 0.728-0.503 1.445-0.66 2.207-0.157 0.796-0.224 1.57-0.224 2.378 0 0.796 0.056 1.57 0.213 2.355 0.134 0.774 0.369 1.502 0.66 2.253 0.302 0.774 0.682 1.502 1.152 2.207 0.235 0.353 0.302 0.762 0.582 1.115 0.268 0.341 0.671 0.501 0.962 0.808 0.291 0.284 0.448 0.694 0.761 0.956l60.412 50.379c5.258 4.392 13.033 3.595 17.341-1.741 4.307-5.359 3.546-13.255-1.712-17.635l-33.764-28.159h114.045l35.655 62.677-24.478 43.108c-3.401 6.007-1.387 13.675 4.509 17.134zM360.804 123.394c2.193-3.88 6.265-6.28 10.684-6.28h56.060c6.802 0 12.329 5.609 12.329 12.538 0 6.906-5.515 12.538-12.329 12.538h-48.934l-35.431 62.666 56.933 100.632 7.037-43.928c0.996-6.144 6.22-10.513 12.15-10.513 0.66 0 1.32 0.046 1.991 0.171 6.724 1.115 11.277 7.555 10.192 14.381l-12.564 78.321c0 0.023 0 0.046-0.011 0.057v0.011c-0.034 0.171-0.090 0.296-0.123 0.466-0.134 0.66-0.269 1.297-0.503 1.957 0 0.011 0 0.011 0 0.023-0.19 0.489-0.448 0.933-0.694 1.388-2.864 5.495-9.319 8.146-15.181 5.882l-0.034-0.011c0 0-0.011-0.011-0.011-0.011l-72.931-27.988c-6.366-2.446-9.576-9.682-7.182-16.156 1.868-5.006 6.556-8.101 11.534-8.101 1.432 0 2.909 0.25 4.352 0.808l40.499 15.53-60.368-106.662c-2.193-3.88-2.193-8.647 0-12.504l42.535-75.215zM435.134 392.068c5.873-3.47 13.425-1.434 16.837 4.551l24.467 42.904h71.085l56.832-100.166-40.521 15.553c-6.366 2.435-13.481-0.819-15.886-7.293-2.394-6.474 0.805-13.71 7.171-16.156l72.92-27.988c0.011-0.011 0.022-0.011 0.034-0.011l0.022-0.023c0.011 0 0.022 0 0.022 0 0.75-0.273 1.522-0.512 2.338-0.649 0.649-0.102 1.298-0.159 1.935-0.159 0.011 0 0.034-0.011 0.056-0.011 1.365 0 2.696 0.284 3.972 0.728 0.414 0.148 0.783 0.375 1.175 0.58 0.805 0.387 1.589 0.796 2.293 1.354 0.414 0.319 0.75 0.683 1.119 1.047 0.593 0.592 1.108 1.206 1.577 1.934 0.313 0.466 0.582 0.944 0.828 1.468 0.168 0.353 0.425 0.637 0.559 1.001 0.28 0.785 0.481 1.581 0.615 2.366 0 0.011 0.011 0.034 0.011 0.046v0.034c0.011 0 0.011 0.023 0.011 0.023l12.552 78.071c1.108 6.849-3.446 13.289-10.169 14.415-6.679 1.058-13.056-3.527-14.152-10.353l-7.026-43.7-60.502 106.673c-2.204 3.88-6.276 6.269-10.684 6.269h-85.305c-4.397 0-8.458-2.378-10.662-6.258l-28.025-49.127c-3.401-5.984-1.387-13.653 4.497-17.123zM855.224-27.161c-20.977-24.074-49.068-36.84-81.176-36.84h-524.357c-31.828 0-59.898 12.743-81.176 36.84-21.189 24.325-30.497 54.099-26.995 86.183l56.698 524.686v343.116c0 18.272 14.533 33.176 32.388 33.176h105.587c0.85 0 1.678-0.091 2.495-0.25 16.815-1.32 30.139-15.496 30.139-32.926v-233.211h3.379c24.020 0.193 43.799 20.297 43.978 44.815 0 1.593 0.324 3.14 0.906 4.608 9.084 22.789 30.71 37.932 55.087 38.546l79.096 0.011c24.512-0.626 46.215-15.701 55.579-38.421 0.638-1.525 0.962-3.174 0.962-4.835 0-24.461 19.779-44.542 44.067-44.735h3.3v233.223c0 17.419 13.313 31.595 30.128 32.926 0.805 0.171 1.633 0.25 2.484 0.25h105.364c17.978 0 32.612-14.904 32.612-33.176v-343.104l56.721-524.697c3.49-32.22-5.929-62.006-27.264-86.183zM356.497 668.547c-6.802 0-12.329 5.62-12.329 12.549v245.726c0 4.403-3.658 8.101-7.977 8.101s-7.977-3.698-7.977-8.101v-331.261h43.978c24.064 0 43.799 20.126 43.978 44.815 0 1.593 0.324 3.14 0.906 4.619 9.151 22.948 30.833 37.977 55.244 38.285h78.928c24.4-0.296 46.16-15.28 55.579-38.159 0.638-1.536 0.962-3.186 0.962-4.847 0-24.666 19.724-44.735 43.967-44.735h43.754v331.283c0 4.471-3.479 8.101-7.742 8.101-4.385 0-7.965-3.629-7.965-8.101v-245.738c0-6.917-5.515-12.549-12.317-12.549h-15.718c-36.941 0.284-67.091 30.082-68.557 66.978-6.019 12.492-18.459 20.65-32.254 21.002h-78.469c-13.582-0.341-25.921-8.51-31.717-20.968-1.689-36.896-31.862-66.716-68.467-67.012l-15.808 0.011zM857.976 56.245l-56.788 525.414c-0.056 0.455-0.078 0.91-0.078 1.377v343.787c0 4.403-3.647 8.101-7.965 8.101h-74.072c0.649-2.605 1.096-5.29 1.096-8.101v-343.787c0-6.917-5.527-12.549-12.329-12.549h-56.072c-36.908 0-67.103 29.797-68.557 66.978-6.030 12.515-18.415 20.604-32.108 20.764l-78.614-0.011c-13.626-0.171-25.91-8.249-31.717-20.718-1.667-37.192-31.896-67.012-68.568-67.012h-56.295c-6.802 0-12.329 5.62-12.329 12.549v343.787c0 2.81 0.459 5.495 1.108 8.101h-74.084c-4.262 0-7.731-3.629-7.731-8.101v-343.787c0-0.466-0.011-0.922-0.067-1.377l-56.788-525.391c-2.752-25.223 4.274-47.659 20.898-66.728 16.658-18.875 37.791-28.477 62.773-28.477h524.357c25.205 0 46.339 9.58 62.784 28.477 16.804 19.023 23.896 41.447 21.144 66.705zM777.191 15.378h-530.634c-6.813 0-12.34-5.609-12.34-12.538 0-6.906 5.515-12.526 12.34-12.526h530.634c6.802 0 12.329 5.609 12.329 12.526-0.011 6.917-5.527 12.538-12.329 12.538z" />
<glyph unicode="&#xe919;" glyph-name="line" horiz-adv-x="2176" d="M2176.48 488.309v-80.617h-2176.67v80.617z" />
<glyph unicode="&#xe91a;" glyph-name="wishlist-empty" d="M516.348 959.999c103.233 0 186.92-83.688 186.92-186.92l-0.022-83.968 115.926-0.011c38.733 0 75.531-16.909 100.75-46.3 25.222-29.393 36.348-68.336 30.46-106.621l-67.995-441.671c-14.027-91.21-92.519-158.534-184.795-158.509h-371.24c-92.259 0-170.717 67.319-184.74 158.505l-67.996 441.678c-5.887 38.281 5.239 77.224 30.461 106.617 25.219 29.39 62.019 46.3 100.75 46.3l124.578 0.011 0.022 83.968c0 103.233 83.688 186.92 186.92 186.92zM819.173 640.339l-115.926 0.011 0.022-138.17c0-13.465-10.916-24.381-24.381-24.381s-24.381 10.916-24.381 24.381l-0.022 138.17h-276.317l0.022-138.17c0-13.465-10.916-24.381-24.381-24.381s-24.381 10.916-24.381 24.381l-0.022 138.17-124.578-0.011c-24.508 0-47.79-10.698-63.745-29.291-15.957-18.596-22.996-43.233-19.271-67.448l67.996-441.678c10.366-67.401 68.357-117.158 136.546-117.158h371.247c68.209-0.019 126.225 49.742 136.593 117.162l67.995 441.671c3.724 24.218-3.314 48.856-19.271 67.451-15.954 18.593-39.237 29.291-63.745 29.291zM505.921 400.658l3.724-2.863 5.261 3.867c20.601 14.124 45.813 20.72 71.22 18.034l6.931-0.964c39.265-6.781 71.432-34.968 83.31-73.002s1.47-79.519-26.957-107.44l-0.697-0.564-121.982-120.84c-8.639-8.555-22.076-9.333-31.586-2.333l-2.726 2.333-122.598 121.422c-28.65 27.879-39.22 69.486-27.351 107.658s44.168 66.449 83.576 73.168c28.461 4.852 57.149-2.135 79.874-18.477zM434.24 371.067c-21.317-3.634-38.787-18.928-45.208-39.577s-0.703-43.154 14.947-58.385l105.599-104.588 106.041 105.001 3.261 3.483c11.446 13.552 15.991 31.665 12.298 49.016l-1.356 5.177c-6.425 20.574-23.825 35.82-45.064 39.488s-42.744-4.86-55.698-22.088c-9.788-13.017-29.34-12.963-39.055 0.109-12.899 17.355-34.451 25.999-55.766 22.364zM516.348 911.238c-76.303 0-138.159-61.855-138.159-138.159l-0.022-83.968h276.317l0.022 83.968c0 76.303-61.855 138.159-138.159 138.159z" />
<glyph unicode="&#xe91b;" glyph-name="filter" d="M629.029 959.999c73.654 0 135.749-49.485 154.855-117.021l196.231-0.007c24.237 0 43.886-19.648 43.886-43.886s-19.648-43.886-43.886-43.886l-196.255-0.095c-19.134-67.492-81.208-116.933-154.83-116.933s-135.696 49.441-154.83 116.933l-430.313 0.095c-24.237 0-43.886 19.648-43.886 43.886s19.648 43.886 43.886 43.886l430.288 0.007c19.105 67.536 81.201 117.021 154.855 117.021zM629.029 872.228c-40.395 0-73.142-32.747-73.142-73.142s32.747-73.142 73.142-73.142c40.395 0 73.142 32.747 73.142 73.142s-32.747 73.142-73.142 73.142zM277.943 608.914c73.654 0 135.749-49.485 154.855-117.021l547.316-0.007c24.237 0 43.886-19.648 43.886-43.886s-19.648-43.886-43.886-43.886l-547.341-0.095c-19.134-67.492-81.208-116.933-154.83-116.933s-135.696 49.441-154.83 116.933l-79.227 0.095c-24.237 0-43.886 19.648-43.886 43.886s19.648 43.886 43.886 43.886l79.203 0.007c19.105 67.536 81.201 117.021 154.855 117.021zM277.943 521.142c-40.395 0-73.142-32.747-73.142-73.142s32.747-73.142 73.142-73.142c40.395 0 73.142 32.747 73.142 73.142s-32.747 73.142-73.142 73.142zM804.571 257.828c73.654 0 135.749-49.485 154.855-117.021l20.688-0.007c24.237 0 43.886-19.648 43.886-43.886s-19.648-43.886-43.886-43.886l-20.713-0.095c-19.134-67.492-81.208-116.933-154.83-116.933s-135.696 49.441-154.83 116.933l-605.856 0.095c-24.237 0-43.886 19.648-43.886 43.886s19.648 43.886 43.886 43.886l605.831 0.007c19.105 67.536 81.201 117.021 154.855 117.021zM804.571 170.057c-40.395 0-73.142-32.747-73.142-73.142s32.747-73.142 73.142-73.142c40.395 0 73.142 32.747 73.142 73.142s-32.747 73.142-73.142 73.142z" />
<glyph unicode="&#xe91c;" glyph-name="arrow-top" d="M16.633 180.33c22.748-22.748 58.386-22.748 80.378 0l414.776 414.776 414.776-414.776c10.292-10.294 24.511-16.661 40.216-16.661 12.855 0 24.714 4.265 34.238 11.456l-0.144-0.105 6.066 5.309c22.748 22.748 22.748 58.386 0 80.378l-454.964 454.964c-22.748 22.748-58.386 22.748-80.378 0l-454.964-454.964c-10.276-10.288-16.633-24.497-16.633-40.188s6.355-29.9 16.633-40.19v0z" />
<glyph unicode="&#xe91d;" glyph-name="arrow-menu" horiz-adv-x="768" d="M111.326 595.34c12.521 12.521 32.138 12.521 44.245 0l228.315-228.315 228.315 228.315c5.664 5.666 13.491 9.171 22.136 9.171 7.075 0 13.604-2.349 18.846-6.306l-0.080 0.057 3.338-2.922c12.521-12.521 12.521-32.138 0-44.245l-250.436-250.436c-12.521-12.521-32.138-12.521-44.245 0l-250.436 250.436c-5.656 5.664-9.156 13.485-9.156 22.121s3.499 16.459 9.156 22.122v0z" />
<glyph unicode="&#xe91e;" glyph-name="barcode" d="M25.724 960c14.207 0 25.723-11.656 25.723-26.034v-971.932c0-14.378-11.517-26.034-25.723-26.034s-25.723 11.656-25.723 26.034v971.932c0 14.378 11.517 26.034 25.723 26.034zM998.276 960c14.207 0 25.723-11.656 25.723-26.034v-971.932c0-14.378-11.517-26.034-25.723-26.034s-25.723 11.656-25.723 26.034v971.932c0 14.378 11.517 26.034 25.723 26.034zM512 960c14.207 0 25.723-11.656 25.723-26.034v-751.039c0-14.378-11.517-26.034-25.723-26.034s-25.723 11.656-25.723 26.034v751.039c0 14.378 11.517 26.034 25.723 26.034zM644.622 960c14.207 0 25.723-11.656 25.723-26.034v-751.039c0-14.378-11.517-26.034-25.723-26.034s-25.723 11.656-25.723 26.034v751.039c0 14.378 11.517 26.034 25.723 26.034zM158.345 960c14.207 0 25.723-11.656 25.723-26.034v-751.039c0-14.378-11.517-26.034-25.723-26.034s-25.723 11.656-25.723 26.034v751.039c0 14.378 11.517 26.034 25.723 26.034zM865.656 960c14.207 0 25.723-11.656 25.723-26.034v-751.039c0-14.378-11.517-26.034-25.723-26.034h-88.414c-14.207 0-25.723 11.656-25.723 26.034v751.039c0 14.378 11.517 26.034 25.723 26.034h88.414zM839.905 907.931h-36.939v-698.958h36.939v698.958zM379.379 960c14.207 0 25.723-11.656 25.723-26.034v-751.039c0-14.378-11.517-26.034-25.723-26.034h-88.414c-14.207 0-25.723 11.656-25.723 26.034v751.039c0 14.378 11.517 26.034 25.723 26.034h88.414zM353.629 907.931h-36.939v-698.958h36.939v698.958z" />
<glyph unicode="&#xe91f;" glyph-name="comments" d="M829.82 423.98c0-58.982-48.166-106.694-107.457-106.694l-265.204 0.014-251.406-217.935c-16.236-14.073-40.995-3.962-43.694 16.37l-0.242 3.691-0.015 197.873-54.346-0.014c-26.076 0-51.186 9.411-70.711 26.355l-5.183 4.807c-20.2 20.009-31.563 47.183-31.563 75.532v368.669c0 58.982 48.166 106.694 107.457 106.694h614.907c59.291 0 107.457-47.712 107.457-106.694l-0.031-101.657 86.754-0.028c59.291 0 107.457-47.712 107.457-106.694v-320.582c0-28.35-11.363-55.523-31.563-75.532-20.151-19.961-47.448-31.161-75.895-31.161l-22.022 0.032 0.025-133.775c0-20.273-21.525-32.603-38.716-23.611l-3.166 1.939-219.695 155.447-185.696-0.032c-13.44 0-24.548 9.988-26.306 22.946l-0.243 3.602c0 14.662 11.886 26.548 26.548 26.548h194.181c5.492 0 10.85-1.704 15.334-4.876l184.637-130.629 0.025 108.957c0 13.44 9.988 24.548 22.946 26.306l3.602 0.243h48.545c14.47 0 28.333 5.687 38.528 15.787 10.147 10.051 15.833 23.648 15.833 37.81v320.582c0 29.544-24.282 53.597-54.361 53.597l-86.754 0.028 0.031-213.916zM722.364 846.247h-614.907c-30.078 0-54.361-24.053-54.361-53.597v-368.669c0-14.162 5.686-27.759 15.833-37.81 10.196-10.099 24.058-15.787 38.528-15.787h80.909c14.662 0 26.548-11.886 26.548-26.548l-0.015-166.248 214.987 186.31c3.861 3.347 8.585 5.491 13.59 6.214l3.798 0.273h275.090c30.078 0 54.361 24.053 54.361 53.597v368.669c0 29.544-24.282 53.597-54.361 53.597z" />
<glyph unicode="&#xe920;" glyph-name="credit-locked" d="M722.955 473.165c69.073 0 122.544-53.378 122.544-122.359l-0.017-55.827 39.746-0.002c13.907 0 25.18-11.267 25.18-25.166v-291.58c0-13.899-11.274-25.166-25.18-25.166h-324.546c-13.907 0-25.18 11.267-25.18 25.166v291.58c0 13.899 11.274 25.166 25.18 25.166l39.723 0.002 0.006 55.827c0 68.982 53.471 122.359 122.544 122.359zM860.025 244.646h-274.163v-241.225h274.163v241.225zM722.955 181.586c13.907 0 25.18-11.267 25.18-25.166v-48.597c0-13.899-11.274-25.166-25.18-25.166s-25.18 11.267-25.18 25.166v48.597c0 13.899 11.274 25.166 25.18 25.166zM933.91 942.933c49.746 0 90.090-40.273 90.090-89.962v-583.159c0-13.899-11.274-25.166-25.18-25.166s-25.18 11.267-25.18 25.166l-0.020 266.422h-923.273l0.014-266.422c0-21.878 17.783-39.629 39.729-39.629h357.001c13.907 0 25.18-11.267 25.18-25.166s-11.274-25.166-25.18-25.166h-357.001c-49.746 0-90.090 40.273-90.090 89.962v583.159c0 49.689 40.343 89.962 90.090 89.962h843.821zM722.955 422.833c-41.273 0-72.184-30.857-72.184-72.027l-0.020-55.827h144.384l0.003 55.827c0 41.171-30.911 72.027-72.184 72.027zM382.181 392.171c13.907 0 25.18-11.267 25.18-25.166s-11.274-25.166-25.18-25.166h-227.183c-13.907 0-25.18 11.267-25.18 25.166s11.274 25.166 25.18 25.166h227.183zM973.619 698.231h-923.273v-111.65h923.273v111.65zM933.91 892.6h-843.821c-21.946 0-39.729-17.752-39.729-39.629l-0.014-104.394h923.273l0.020 104.394c0 21.878-17.783 39.629-39.729 39.629z" />
<glyph unicode="&#xe921;" glyph-name="delivery-fast" d="M776.982 761.724c11.284 0 21.372-7.015 25.28-17.579l90.63-245.055 116.364-58.988c7.915-4.011 13.267-11.608 14.481-20.226l0.263-3.749v-254.964c0-14.852-12.065-26.891-26.947-26.891h-157.193c-14.882 0-26.947 12.040-26.947 26.891s12.065 26.891 26.947 26.891h130.246v211.577l-111.011 56.263c-4.843 2.455-8.801 6.298-11.395 10.992l-1.682 3.672-87.827 237.386h-237.209v-519.888h67.369c13.643 0 24.917-10.117 26.701-23.242l0.246-3.649c0-14.852-12.065-26.891-26.947-26.891h-94.316c-14.882 0-26.947 12.040-26.947 26.891v573.67c0 14.852 12.065 26.891 26.947 26.891h282.948zM691.649 295.619c84.335 0 152.702-68.223 152.702-152.381s-68.367-152.381-152.702-152.381c-84.335 0-152.702 68.223-152.702 152.381s68.367 152.381 152.702 152.381zM691.649 241.837c-54.569 0-98.807-44.144-98.807-98.599s44.237-98.599 98.807-98.599c54.569 0 98.807 44.144 98.807 98.599s-44.237 98.599-98.807 98.599zM601.824 618.307c14.882 0 26.947-12.040 26.947-26.891v-116.526h116.772c13.643 0 24.917-10.117 26.701-23.242l0.246-3.649c0-14.852-12.065-26.891-26.947-26.891h-143.72c-14.882 0-26.947 12.040-26.947 26.891v143.417c0 14.852 12.065 26.891 26.947 26.891zM350.315 743.797c14.882 0 26.947-12.040 26.947-26.891s-12.065-26.891-26.947-26.891h-251.509c-14.882 0-26.947 12.040-26.947 26.891s12.065 26.891 26.947 26.891h251.509zM458.105 905.142c14.882 0 26.947-12.040 26.947-26.891v-143.417c0-14.852-12.065-26.891-26.947-26.891s-26.947 12.040-26.947 26.891v116.526h-404.211c-13.643 0-24.917 10.117-26.701 23.242l-0.246 3.649c0 14.852 12.065 26.891 26.947 26.891h431.158zM350.315 600.38c14.882 0 26.947-12.040 26.947-26.891s-12.065-26.891-26.947-26.891h-179.649c-14.882 0-26.947 12.040-26.947 26.891s12.065 26.891 26.947 26.891h179.649zM350.315 421.109c14.882 0 26.947-12.040 26.947-26.891s-12.065-26.891-26.947-26.891h-143.72c-14.882 0-26.947 12.040-26.947 26.891s12.065 26.891 26.947 26.891h143.72z" />
<glyph unicode="&#xe922;" glyph-name="headset" d="M920.044 273.433c24.145 0 43.719-19.649 43.719-43.886v-124.83c0-93.27-75.883-168.716-169.272-168.716h-188.329c-24.145 0-43.719 19.649-43.719 43.886s19.573 43.886 43.719 43.886h188.329c45.284 0 81.833 36.339 81.833 80.945v124.83c0 24.238 19.573 43.886 43.719 43.886zM292.282 491.886c24.145 0 43.719-19.649 43.719-43.886v-312.077c0-24.238-19.573-43.886-43.719-43.886h-94.164c-76.063 0-137.883 61.466-137.883 137.508v218.453c0 24.238 19.573 43.886 43.719 43.886h188.329zM248.518 179.83v224.285h-100.846v-174.567c0-25.273 19.16-46.267 44.098-49.349l6.347-0.389 50.4 0.019zM920.044 491.886c24.145 0 43.719-19.649 43.719-43.886v-218.453c0-76.043-61.822-137.508-137.883-137.508h-94.164c-24.145 0-43.719 19.649-43.719 43.886v312.077c0 24.238 19.573 43.886 43.719 43.886h188.329zM876.281 404.115h-100.846v-224.285l50.446-0.019c25.808 0 46.954 19.050 50.054 43.516l0.392 6.222-0.044 174.567zM511.999 960.001c249.419 0 451.765-201.182 451.765-449.585v-62.416c0-24.238-19.573-43.886-43.719-43.886s-43.719 19.649-43.719 43.886v62.416c0 199.739-163.012 361.814-364.326 361.814s-364.326-162.074-364.326-361.814v-62.416c0-24.238-19.573-43.886-43.719-43.886s-43.719 19.649-43.719 43.886v62.416c0 248.402 202.345 449.585 451.765 449.585z" />
<glyph unicode="&#xe923;" glyph-name="phone" d="M179.971 954.64c36.548 16.273 73.648-3.194 132.307-76.541 102.65-135.093 128.469-191.187 71.318-243.548-0.431-0.365-19.676-16.492-25.244-21.294-49.392-42.594-63.506-69.361-46.418-101.904 24.992-53.134 206.677-233.467 260.739-260.509 33.033-16.523 57.536-4.378 98.894 41.795 1.872 2.090 19.294 21.922 23.609 26.59 51.322 60.626 114.408 33.113 247.664-68.235 72.649-58.157 91.019-93.87 76.621-132.463-1.307-3.484-1.251-3.329-1.846-5.345-25.741-77.255-169.235-191.061-328.066-175.796-209.956 23.326-668.317 483.365-687.609 691.994l0.165-1.45-0.179 0.795c-18.087 153.891 95.129 299.384 170.619 323.323l4.671 1.302c0.415 0.219 0.697 0.348 1.107 0.536l1.647 0.75zM961.292 134.876l1.754 4.72c1.187 3.181 1.184 2.531-1.036 6.846-6.406 12.454-24.236 31.455-56.202 57.056-101.891 77.484-147.326 97.3-165.471 75.902-4.583-4.996-21.665-24.441-23.923-26.962-57.547-64.245-105.56-88.042-170.67-55.474-65.869 32.948-257.398 223.050-287.696 287.537-34.12 64.852-7.515 115.309 60.988 174.384 5.953 5.133 25.501 21.515 24.762 20.858 18.297 16.773-0.94 58.566-78.997 161.309-43.070 53.843-55.854 60.552-60.344 58.552-1.974-0.962-4.933-2.309-9.994-3.904 0.786 0.197-10.695-6.889-22.211-15.874-18.238-14.23-36.556-32.002-52.797-52.31-43.977-54.99-66.249-119.199-57.722-191.752l-0.052 0.323 0.221-1.153c16.423-177.599 441.159-606.011 626.563-636.614l7.287-1.010c74.23-7.132 139.574 16.047 195.588 60.473 20.427 16.201 38.287 34.292 52.866 52.416 8.983 11.167 16.452 22.547 15.643 19.842l1.443 4.836z" />
<glyph unicode="&#xe924;" glyph-name="shop" d="M796.384 488.952l0.080-0.127 5.448-6.33c24.76-27.048 59-43.385 95.478-45.551l8.455-0.247h5.005c15.282 0 27.672-12.486 27.672-27.886v-367.813c0-17.682-6.96-34.667-19.365-47.168s-29.26-19.517-46.806-19.517h-190.195c-17.545 0-34.4 7.015-46.804 19.515-12.406 12.501-19.367 29.487-19.367 47.17v91.178c0 29.418-12.393 57.454-34.108 77.195-21.721 19.709-50.684 29.228-78.97 26.299-53.916-7.177-93.99-53.792-93.376-108.925v-86.133c0-17.682-6.96-34.667-19.365-47.168s-29.26-19.517-46.806-19.517h-190.195c-17.545 0-34.4 7.015-46.804 19.515-12.406 12.501-19.367 29.487-19.367 47.17v368.198c0 15.402 12.389 27.886 27.672 27.886h5.031c42.412-0.041 82.611 19.142 109.446 52.23 11.108 13.695 31.898 13.643 42.938-0.108 26.762-33.334 67.029-52.704 109.583-52.704 42.556 0 82.826 19.371 109.582 52.703 11.075 13.796 31.95 13.797 43.026 0.001 26.762-33.334 67.029-52.704 109.583-52.704 42.556 0 82.826 19.371 109.582 52.703 4.937 6.215 12.428 10.348 21.504 10.348 9.060 0 16.539-4.112 21.438-10.211zM775.028 431.081l-6.018-5.327c-34.887-29.095-79.057-45.414-125.15-45.414s-90.259 16.318-125.147 45.413l-5.974 5.217-5.919-5.215c-32.396-27.016-72.794-43.017-115.305-45.166l-9.845-0.248c-46.092 0-90.259 16.318-125.147 45.413l-6.072 5.328-5.941-5.212c-27.412-22.668-60.479-37.491-95.655-42.781l-6.545-0.791 0.033-341.688c0-2.183 0.644-4.3 1.814-6.077l1.341-1.653c2.012-2.027 4.783-3.181 7.671-3.181h190.195c2.888 0 5.659 1.154 7.671 3.181s3.157 4.821 3.157 7.731l0.002 85.819c-0.927 83.032 59.788 153.66 142.254 164.626 44.637 4.64 89.117-9.979 122.483-40.255 33.357-30.325 52.401-73.405 52.401-118.625v-91.178c0-2.911 1.145-5.704 3.157-7.731s4.783-3.181 7.671-3.181h190.195c2.888 0 5.659 1.154 7.671 3.181s3.157 4.821 3.157 7.731l-0.010 341.3-6.487 0.793c-35.187 5.291-68.256 20.112-95.669 42.779l-5.985 5.211zM474.264 920.898c15.282 0 27.672-12.486 27.672-27.886l-0.006-312.916c1.376-66.808-51.276-122.131-117.567-123.516-66.294-1.386-121.188 51.674-122.569 119.059l1.042 7.584 88.935 317.368c3.367 12.013 14.244 20.308 26.63 20.308h95.864zM297.168 920.906c18.355 0 31.624-17.681 26.626-35.479l-84.046-299.221 0.009-6.413c0.604-62.605-46.193-114.895-107.215-121.43l-6.837-0.536c-64.322-3.279-119.776 45.213-125.591 109.867-0.506 5.623 0.694 11.268 3.441 16.189l170.249 304.991c12.169 20.187 34.067 32.358 57.145 32.035h66.219zM643.558 458.513c-66.165 0.251-119.716 54.22-119.967 121.004v313.495c0 15.402 12.389 27.886 27.672 27.886h95.864c12.387 0 23.264-8.295 26.63-20.308l88.935-317.368c0.806-2.877 1.148-5.867 1.013-8.853-2.937-64.668-55.731-115.66-119.961-115.849l-0.185-0.006zM794.59 922.072c23.926 0 45.964-13.022 57.644-34.058l168.243-303.015c2.725-4.908 3.914-10.533 3.41-16.134-5.815-64.653-61.27-113.145-125.563-109.868-64.355 3.214-114.705 57.045-114.081 121.697l-0.028 6.701-84.011 299.198c-4.665 16.612 6.583 33.122 23.026 35.249l3.6 0.23h67.76zM446.584 865.145h-47.263l-81.982-292.55 0.117-1.722c3.213-31.692 28.886-56.507 60.447-58.428l5.312-0.105c35.729 0.747 64.125 30.583 63.377 67.176l-0.008 285.629zM260.557 865.145l-29.99-0.011c-3.889 0.054-7.49-1.947-8.995-4.415l-165.12-295.747 0.634-2.936c7.177-27.611 31.686-47.62 60.419-48.56l5.434 0.050c34.685 1.732 61.816 30.739 61.478 65.721l-0.004 10.75 1.046 7.593 75.099 267.554zM626.154 865.145h-47.227l0.007-285.524c0.128-34.239 26.248-62.267 59.522-65.101l5.223-0.227 5.327 0.24c30.421 2.629 55.032 26.4 58.94 56.929l0.116 1.542-81.908 292.14zM838.54 598.762l1.046-7.593-0.001-10.747c-0.337-34.983 26.794-63.99 61.507-65.723 31.009-1.581 58.2 19.175 65.825 48.512l0.595 2.952-163.575 294.617c-1.516 2.729-4.1 4.623-7.063 5.271l-2.283 0.247h-31.184l75.134-267.537z" />
<glyph unicode="&#xe925;" glyph-name="Star-border" d="M452.44 897.789c19.758 57.073 99.442 56.326 119.007-0.045l96.549-278.94 293.994-6.023c56.353-1.281 83.919-71.864 41.131-110.119l-4.362-3.598-234.316-178.408 83.321-276.602c22.542-54.515-36.934-110.617-89.784-79.393l-4.644 2.984-241.41 168.764-241.218-168.636c-44.78-31.649-110.522 6.986-97.862 64.724l1.42 5.467 85.143 282.652-234.335 178.445c-46.137 35.152-24.445 107.655 31.264 113.353l5.496 0.339 294.022 6.010 96.583 279.023zM516.992 878.704c-1.693 4.877-8.401 4.94-10.088 0.066l-103.17-298.071c-3.96-11.441-14.59-19.197-26.647-19.443l-314.032-6.402c-5.128-0.113-7.21-6.541-3.139-9.643l250.328-190.613c9.61-7.318 13.67-19.87 10.178-31.463l-90.955-301.907c-1.507-5.025 4.414-8.666 8.184-6.002l257.844 180.207c9.899 6.918 23.039 6.917 32.936-0.002l257.789-180.211c4.638-3.226 10.257 1.871 7.327 9.33l-90.085 298.578c-3.498 11.595 0.56 24.152 10.172 31.473l250.289 190.616c4.142 3.153 1.809 9.531-3.147 9.642l-314.024 6.441c-12.055 0.247-22.684 8.004-26.643 19.444l-103.12 297.961z" />
<glyph unicode="&#xe926;" glyph-name="star-empty" d="M532.071 946.801l146.112-310.471 326.619-49.798c8.456-1.314 15.469-7.521 18.102-16.022s0.433-17.827-5.68-24.073l-236.299-241.614 55.791-341.233c1.467-8.8-1.98-17.707-8.888-22.965s-16.076-5.954-23.638-1.795l-292.157 161.076-292.157-161.122c-7.558-4.175-16.73-3.49-23.643 1.767s-10.359 14.168-8.884 22.969l55.791 341.303-236.366 241.614c-6.113 6.246-8.314 15.572-5.68 24.073s9.648 14.708 18.102 16.022l326.619 49.798 146.179 310.471c3.719 8.028 11.502 13.127 20.036 13.127s16.317-5.099 20.036-13.127z" />
<glyph unicode="&#xe927;" glyph-name="star-fill" d="M532.144 946.871l146.132-310.514 326.665-49.805c8.457-1.314 15.471-7.522 18.105-16.024s0.433-17.829-5.681-24.076l-236.332-241.648 55.799-341.281c1.467-8.801-1.98-17.709-8.889-22.968s-16.078-5.955-23.641-1.795l-292.198 161.099-292.198-161.145c-7.559-4.176-16.732-3.49-23.646 1.767s-10.36 14.17-8.885 22.972l55.799 341.351-236.399 241.648c-6.114 6.247-8.315 15.574-5.681 24.076s9.649 14.71 18.105 16.024l326.665 49.805 146.199 310.514c3.72 8.029 11.504 13.129 20.039 13.129s16.319-5.1 20.039-13.129z" />
<glyph unicode="&#xe928;" glyph-name="pay" d="M833.255 852.915c105.345 0 190.745-85.4 190.745-190.745v-428.339c0-105.345-85.4-190.745-190.745-190.745h-642.51c-105.345 0-190.745 85.4-190.745 190.745v428.339c0 105.345 85.4 190.745 190.745 190.745h642.51zM963.765 524.995h-903.529v-291.164c0-72.079 58.431-130.51 130.51-130.51h642.51c72.079 0 130.51 58.431 130.51 130.51v291.164zM244.823 317.49c16.634 0 30.118-13.484 30.118-30.118s-13.484-30.118-30.118-30.118h-0.536c-16.634 0-30.118 13.484-30.118 30.118s13.484 30.118 30.118 30.118h0.536zM565.543 317.49c16.634 0 30.118-13.484 30.118-30.118s-13.484-30.118-30.118-30.118h-107.085c-16.634 0-30.118 13.484-30.118 30.118s13.484 30.118 30.118 30.118h107.085zM833.255 792.68h-642.51c-72.079 0-130.51-58.431-130.51-130.51v-76.941h903.529v76.941c0 72.079-58.431 130.51-130.51 130.51z" />
<glyph unicode="&#xe929;" glyph-name="products" d="M524.232 903.862l481.882-214.17c10.876-4.834 17.886-15.62 17.886-27.521v-696.053c0-16.634-13.484-30.118-30.118-30.118s-30.118 13.484-30.118 30.118v676.509l-451.765 200.784-451.765-200.784v-676.509c0-15.247-11.331-27.849-26.030-29.843l-4.087-0.275c-16.634 0-30.118 13.484-30.118 30.118v696.053c0 11.903 7.010 22.687 17.886 27.521l481.882 214.17c7.788 3.461 16.676 3.461 24.464 0zM244.288-64c-16.634 0-30.118 13.484-30.118 30.118v321.255c0 16.634 13.484 30.118 30.118 30.118l76.967 0.026v130.483c0 46.204 37.456 83.661 83.661 83.661h107.085c46.204 0 83.661-37.456 83.661-83.661l-0.014-23.425h184.065c16.634 0 30.118-13.484 30.118-30.118v-428.339c0-16.634-13.484-30.118-30.118-30.118h-535.425zM535.411 257.281h-261.006v-261.020h261.006v261.020zM595.647-3.738h153.935v368.078h-153.935v-368.078zM512 471.425h-107.085c-12.937 0-23.425-10.487-23.425-23.425v-130.483h153.921l0.014 130.483c0 12.937-10.487 23.425-23.425 23.425z" />
<glyph unicode="&#xe92a;" glyph-name="save" d="M779.699 959.975c75.771 0 137.195-61.424 137.195-137.195v-856.638c0-24.054-26.807-38.401-46.822-25.058l-140.127 93.402-89.572-89.639c-10.692-10.692-27.423-11.664-39.212-2.916l-3.378 2.916-85.797 85.825-85.771-85.825c-10.692-10.692-27.423-11.664-39.212-2.916l-3.378 2.916-89.639 89.639-141.565-94.348-1.146-0.538-1.232-0.713-1.099-0.494-2.326-0.801-0.635-0.272-0.755-0.218-2.465-0.473-0.952-0.258-4.219-0.345c-5.914 0.001-11.108 1.5-15.57 4.113l-1.625 1.148-1.579 1.015-0.349 0.35-0.42 0.255-0.744 0.749-1.379 1.191-0.629 0.777-0.393 0.292-0.491 0.711-1.033 1.112-0.493 0.816-0.724 0.882-0.481 0.885-0.466 0.621-0.699 1.467-0.552 0.911-0.131 0.414-0.364 0.685-0.801 2.326-0.272 0.635-0.218 0.755-0.473 2.465-0.258 0.952-0.223 2.702-0.122 1.517v857.007c0 75.771 61.426 137.195 137.197 137.195h535.399zM779.699 899.742h-535.399c-42.505 0-76.963-34.458-76.963-76.963v-800.341l113.798 75.841c10.617 7.079 24.364 6.621 34.418-0.698l3.584-3.064 85.757-85.771 85.811 85.771c10.692 10.692 27.423 11.664 39.212 2.916l3.378-2.916 85.744-85.771 85.825 85.771c9.024 9.024 22.592 11.27 33.886 6.065l4.115-2.303 113.771-75.841 0.026 800.341c0 40.481-31.254 73.664-70.949 76.732l-6.014 0.232zM645.85 424.576c31.417 0 56.886-25.468 56.886-56.886s-25.468-56.886-56.886-56.886c-31.417 0-56.886 25.468-56.886 56.886s25.468 56.886 56.886 56.886zM693.915 683.454c11.762-11.762 11.762-30.83 0-42.591l-321.239-321.239c-11.762-11.762-30.83-11.762-42.591 0s-11.762 30.83 0 42.591l321.239 321.239c11.762 11.762 30.83 11.762 42.591 0zM378.15 692.276c31.417 0 56.886-25.468 56.886-56.886s-25.468-56.886-56.886-56.886c-31.417 0-56.886 25.468-56.886 56.886s25.468 56.886 56.886 56.886z" />
</font>
</defs>
</svg>
